Tags
Language
Tags

Maria Callas - Bizet: Carmen (1964/2014) [Official Digital Download 24-bit/96 kHz]

Posted By: HDV
Maria Callas - Bizet: Carmen (1964/2014) [Official Digital Download 24-bit/96 kHz]

Maria Callas - Bizet: Carmen (1964) [Remastered 2014]
FLAC (tracks) 24-bit/96 kHz | Time - 146:52 minutes | 2,93 GB
Studio Master, Official Digital Download | Artwork: Digital booklet

‘Callas is Carmen’ proclaimed the publicity when this recording first appeared on LP in elaborate red and gold faux- leather luxury packaging with three separate booklets. It was a major coup for the record company to get Callas to record this most intriguing of all operatic roles, and its release was eagerly awaited. Opera houses around the world had been trying for years to persuade Callas to play Carmen, but the closest this ever came was when she sang the two first-act arias in a Golden Hour TV concert from the Royal Opera House, Covent Garden, in 1962.

Callas had thought long and hard as to how she might portray the fiery gypsy on stage, but in a filmed interview with Lord Harewood she said that Carmen behaved like a man in that she took her lovers as it pleased her, whereas she (Callas) was a more romantic, feminine person who would not behave in this aggressive way in affairs of the heart.

At the beginning of 1964, after a gap of several years, Callas had returned triumphantly to the operatic stage in the acclaimed Zeffirelli production of Tosca at Covent Garden and then appeared in a sumptuous new staging of Norma at the Paris Opéra. The Carmen sessions began two weeks after the final Norma and found Callas in magnificent voice. Despite certain expectations that Callas’s Carmen would somehow be the most violent, most extreme interpretation of the part, the actual result is a superb performance of infinite subtlety and detail that brings the character vividly to life. All the requisite elements of seductiveness, charm and defiance are there. It is a performance full of inner fire, but everything is kept totally under control until the final blazing outburst at the end.

Was Callas Carmen? We will never know how she would have interpreted the role on stage, but as far as singing is concerned the answer is: ‘Yes’, and this recording is the proof.

Tracklist:

01 - Carmen: Prelude
02 - Carmen, Act 1: "Sur la place" (Chorus, Moralès, Micaela)
03 - Carmen, Act 1: "Avec la garde montante" (Children's Chorus, Moralès, José)
04 - Carmen, Act 1: "C'est bien là, n'est-ce pas?" (José, Zuñiga)
05 - Carmen, Act 1: "La cloche a sonné….Dans l'air" (Chorus)
06 - Carmen, Act 1: "L'amour est un oiseau rebelle" (Carmen, Chorus) [Habanera]
07 - Carmen, Act 1: "Carmen! sur tes pas" (Chorus, Carmen, José)
08 - Carmen, Act 1: "Quels regardes! Quelle effronterie!" (Carmen, José)
09 - Carmen, Act 1: "Parle-moi de ma mère!" (José, Micaela)
10 - Carmen, Act 1: "Reste là, maintenant, pendant que je lirai" (José, Micaela)
11 - Carmen, Act 1: "Que se passe-t-il donc là-bas?…Au secours!" (Zuñiga, Chorus)
12 - Carmen, Act 1: "Mon officier, c'était une querelle" (José, Zuñiga, Carmen)
13 - Carmen, Act 1: "Près des ramparts de Séville" (Carmen, José)
14 - Carmen, Act 1: "Voici l'ordre; partez" (Zuñiga, Carmen)
15 - Carmen, Act 1: Entr'acte
16 - Carmen, Act 2: "Les tringles des sistres tintaient" (Camen, Frasquita, Mercédès)
17 - Carmen, Act 2: "Messieurs, Pastia me dit" (Frasquita, Zuñiga, Camen, Mercédès)
18 - Carmen, Act 2: "Vivat! vivat le Toréro!" (Chorus, Zuñiga)
19 - Carmen, Act 2: "Votre toast, je peux vous le rendre" (Escamillo, Chorus)
20 - Carmen, Act 2: "La belle, un mot" (Escamillo, Carmen, Zuñiga)
21 - Carmen, Act 2: "Eh bien! vite, quelles nouvelles?…..Nous avons en tête un affaire" (Carmen, Frasquita, Mercédès, Dancaïre, Remendado, Chorus)
22 - Carmen, Act 2: "Mais qui donc attends-tu?" (Dancaïre, Carmen, Remendado)
23 - Carmen, Act 2: "Halte là!" (José, Carmen, Frasquita, Mercédès, Dancaïre, Remendado)
24 - Carmen, Act 2: "Enfin c'est toi!…Tout doux, Monsieur" (Carmen, José)
25 - Carmen, Act 2: "La fleur que tu m'avais jetée…Non, tu ne m'aimes pas" (Carmen, José)
26 - Carmen, Act 2: "Holà Carmen!" (Zuñiga, José, Carmen, Dancaïre, Remendado)
27 - Carmen, Act 2: Entr'acte
28 - Carmen, Act 3: "Ecoute, écoute, compagnon, écoute" (Chorus, Dancaïre, Remendado, José, Carmen, Mercédès, Frasquita)
29 - Carmen, Act 3: "Reposons-nous une heure ici, mes camarades" (Dancaïre, Carmen, José)
30 - Carmen, Act 3: "Mêlons! Coupons!" (Frasquita, Mercédès, Carmen)
31 - Carmen, Act 3: "Eh bien?" (Carmen, Dancaïre, Frasquita)
32 - Carmen, Act 3: "Quant au douanier, c'est notre affaire" (Carmen, Mercédès, Frasquita)
33 - Carmen, Act 3: "C'est des contrebandiers….Je dis, que rien ne m'épouvante" (Micaëla)
34 - Carmen, Act 3: "Je ne me trompe pas" (Micaëla)
35 - Carmen, Act 3: "Quelques lignes plus bas" (Escamillo, José, Carmen, Dancaïre, Micaëla, Frasquita, Mercédès, Remendado, Chorus)
36 - Carmen, Act 3: Entr'acte
37 - Carmen, Act 4: "A deux cuartos!" (Chorus, Zuñiga)
38 - Carmen, Act 4: "Les voici! voici la quadrille!" (Chorus, Escamillo, Carmen, Frasquita)
39 - Carmen, Act 4: "C'est toi!…Viva! viva! la course est belle!" (Carmen, José, Chorus)

Libretto: Henri Meilhac & Ludovic Halévy.
Recorded July 6-20, 1964, Salle Wagram, Paris, France.
Newly Remastered from the Original Master tapes at Abbey Road Studios, London, U.K.

Performers:
Maria Callas (Carmen)
Nicolai Gedda (Don José)
Andréa Guiot (Micaëla)
Robert Massard (Escamillo)
Nadine Sautereau (Frasquita)
Jane Berbié (Mercédès)
Jean-Paul Vauquelin (Le Dancaïre)
Jacques Pruvost (Le Remendado)
Claude Cales (Moralès)
Jacques Mars (Zuniga)

Chœurs René Duclos. Chorus master: Jean Laforge. Chœurs d’enfants Jean Pesneaud.
Orchestre du Théâtre National de l’Opéra de Paris - Conducted by Georges Prêtre.

Analyzed: Andrea Guiot, Choeurs Rene Duclos, Orchestre de l'Opéra National de Paris & Georges Prêtre / Bizet: Carmen (1)
Andrea Guiot, Orchestre de l'Opéra National de Paris & Georges Prêtre / Bizet: Carmen (2-3)
Choeurs Rene Duclos, Orchestre de l'Opéra National de Paris & Georges Prêtre / Bizet: Carmen (4-7)
Maria Callas, Choeurs Rene Duclos, Orchestre de l'Opéra National de Paris & Georges Prêtre / Bizet: Carmen (8)
Maria Callas, Jean-paul Vauquelin, Jacques Pruvost, Orchestre de l'Opéra National de Paris & Georges Prêtre / Bizet: Carmen (9)
Maria Callas, Nadine Sautereau, Jane Berbié, Jean-paul Vauquelin, Jacques Pruvost, Orchestre de l'Opéra National de Paris & Georges Prêtre / Bizet: Carmen (10)
Maria Callas, Nadine Sautereau, Jane Berbié, Orchestre de l'Opéra National de Paris & Georges Prêtre / Bizet: Carmen (11-14)
Maria Callas, Nadine Sautereau, Jean-paul Vauquelin, Orchestre de l'Opéra National de Paris & Georges Prêtre / Bizet: Carmen (15)
Maria Callas, Nicolai Gedda, Andrea Guiot, Robert Massard, Nadine Sautereau, Jane Berbié, Jean-paul Vauquelin, Jacques Pruvost, Choeurs Rene Duclos, Orchestre de l'Opéra National de Paris & Georges Prêtre / Bizet: Carmen (16)
Maria Callas, Nicolai Gedda, Choeurs Rene Duclos, Orchestre de l'Opéra National de Paris & Georges Prêtre / Bizet: Carmen (17-18)
Maria Callas, Nicolai Gedda, Jane Berbié, Jean-paul Vauquelin, Jacques Pruvost, Orchestre de l'Opéra National de Paris & Georges Prêtre / Bizet: Carmen (19)
Maria Callas, Nicolai Gedda, Jane Berbié, Nadine Sautereau, Jean-paul Vauquelin, Maurice Maievski, Choeurs Rene Duclos, Orchestre de l'Opéra National de Paris & Georges Prêtre / Bizet: Carmen (20)
Maria Callas, Nicolai Gedda, Jean-paul Vauquelin, Maurice Maievski, Orchestre de l'Opéra National de Paris & Georges Prêtre / Bizet: Carmen (21)
Maria Callas, Nicolai Gedda, Jean-paul Vauquelin, Orchestre de l'Opéra National de Paris & Georges Prêtre / Bizet: Carmen (22)
Maria Callas, Nicolai Gedda, Orchestre de l'Opéra National de Paris & Georges Prêtre / Bizet: Carmen (23-26)
Maria Callas, Orchestre de l'Opéra National de Paris & Georges Prêtre / Bizet: Carmen (27)
Maria Callas, Robert Massard, Nadine Sautereau, Choeurs Rene Duclos, Orchestre de l'Opéra National de Paris & Georges Prêtre / Bizet: Carmen (28)
Maria Callas, Robert Massard, Orchestre de l'Opéra National de Paris & Georges Prêtre / Bizet: Carmen (29)
Nicolai Gedda, Andrea Guiot, Orchestre de l'Opéra National de Paris & Georges Prêtre / Bizet: Carmen (30-31)
Nicolai Gedda, Choeurs Rene Duclos, Orchestre de l'Opéra National de Paris & Georges Prêtre / Bizet: Carmen (32)
Nicolai Gedda, Maria Callas, Orchestre de l'Opéra National de Paris & Georges Prêtre / Bizet: Carmen (33)
Nicolai Gedda, Orchestre de l'Opéra National de Paris & Georges Prêtre / Bizet: Carmen (34)
Orchestre de l'Opéra National de Paris & Georges Prêtre / Bizet: Carmen (35-38)
Robert Massard, Choeurs Rene Duclos, Orchestre de l'Opéra National de Paris & Georges Prêtre / Bizet: Carmen (39)
––––––––––––––––––––––––––––––––––––––––

DR Peak RMS Duration Track
––––––––––––––––––––––––––––––––––––––––
DR15 -0.69 dB -21.26 dB 7:23 02-Carmen, Act 1: "Sur la place" (Chorus, Moralès, Micaela)
DR13 -2.19 dB -21.88 dB 5:50 33-Carmen, Act 3: "C'est des contrebandiers….Je dis, que rien ne m'épouvante" (Micaëla)
DR13 -2.95 dB -20.88 dB 0:28 34-Carmen, Act 3: "Je ne me trompe pas" (Micaëla)
DR14 -3.84 dB -23.83 dB 4:34 05-Carmen, Act 1: "La cloche a sonné….Dans l'air" (Chorus)
DR10 -1.94 dB -16.91 dB 3:00 11-Carmen, Act 1: "Que se passe-t-il donc là-bas?…Au secours!" (Zuñiga, Chorus)
DR11 -2.41 dB -18.80 dB 1:10 18-Carmen, Act 2: "Vivat! vivat le Toréro!" (Chorus, Zuñiga)
DR12 -0.85 dB -18.14 dB 1:56 37-Carmen, Act 4: "A deux cuartos!" (Chorus, Zuñiga)
DR12 -2.53 dB -21.26 dB 4:18 06-Carmen, Act 1: "L'amour est un oiseau rebelle" (Carmen, Chorus) [Habanera]
DR9 -4.34 dB -24.35 dB 0:25 22-Carmen, Act 2: "Mais qui donc attends-tu?" (Dancaïre, Carmen, Remendado)
DR13 -0.99 dB -21.05 dB 4:44 21-Carmen, Act 2: "Eh bien! vite, quelles nouvelles?…..Nous avons en tête un affaire" (Carmen, Frasquita, Mercédès, Dancaïre, Remendado, Chorus)
DR12 -0.10 dB -17.84 dB 4:18 16-Carmen, Act 2: "Les tringles des sistres tintaient" (Camen, Frasquita, Mercédès)
DR14 -1.83 dB -21.40 dB 0:57 17-Carmen, Act 2: "Messieurs, Pastia me dit" (Frasquita, Zuñiga, Camen, Mercédès)
DR13 -0.60 dB -21.42 dB 6:51 30-Carmen, Act 3: "Mêlons! Coupons!" (Frasquita, Mercédès, Carmen)
DR12 -1.66 dB -18.70 dB 2:49 32-Carmen, Act 3: "Quant au douanier, c'est notre affaire" (Carmen, Mercédès, Frasquita)
DR12 -6.45 dB -24.91 dB 0:38 31-Carmen, Act 3: "Eh bien?" (Carmen, Dancaïre, Frasquita)
DR14 -1.52 dB -19.84 dB 11:32 35-Carmen, Act 3: "Quelques lignes plus bas" (Escamillo, José, Carmen, Dancaïre, Micaëla, Frasquita, Mercédès, Remendado, Chorus)
DR12 -1.29 dB -20.18 dB 1:29 07-Carmen, Act 1: "Carmen! sur tes pas" (Chorus, Carmen, José)
DR13 -0.30 dB -18.78 dB 8:48 39-Carmen, Act 4: "C'est toi!…Viva! viva! la course est belle!" (Carmen, José, Chorus)
DR14 -6.43 dB -26.08 dB 1:32 23-Carmen, Act 2: "Halte là!" (José, Carmen, Frasquita, Mercédès, Dancaïre, Remendado)
DR14 -1.98 dB -23.15 dB 4:02 28-Carmen, Act 3: "Ecoute, écoute, compagnon, écoute" (Chorus, Dancaïre, Remendado, José, Carmen, Mercédès, Frasquita)
DR11 -0.85 dB -17.91 dB 4:59 26-Carmen, Act 2: "Holà Carmen!" (Zuñiga, José, Carmen, Dancaïre, Remendado)
DR15 -4.43 dB -25.96 dB 2:16 29-Carmen, Act 3: "Reposons-nous une heure ici, mes camarades" (Dancaïre, Carmen, José)
DR12 -5.67 dB -23.14 dB 0:56 08-Carmen, Act 1: "Quels regardes! Quelle effronterie!" (Carmen, José)
DR14 -1.84 dB -23.02 dB 4:32 13-Carmen, Act 1: "Près des ramparts de Séville" (Carmen, José)
DR13 -1.33 dB -20.24 dB 5:52 24-Carmen, Act 2: "Enfin c'est toi!…Tout doux, Monsieur" (Carmen, José)
DR13 -0.39 dB -19.57 dB 7:48 25-Carmen, Act 2: "La fleur que tu m'avais jetée…Non, tu ne m'aimes pas" (Carmen, José)
DR12 0.00 dB -19.82 dB 2:06 14-Carmen, Act 1: "Voici l'ordre; partez" (Zuñiga, Carmen)
DR11 -0.13 dB -16.95 dB 6:52 38-Carmen, Act 4: "Les voici! voici la quadrille!" (Chorus, Escamillo, Carmen, Frasquita)
DR13 -3.95 dB -23.70 dB 1:34 20-Carmen, Act 2: "La belle, un mot" (Escamillo, Carmen, Zuñiga)
DR14 -2.67 dB -22.90 dB 8:57 09-Carmen, Act 1: "Parle-moi de ma mère!" (José, Micaela)
DR12 -4.17 dB -25.06 dB 1:32 10-Carmen, Act 1: "Reste là, maintenant, pendant que je lirai" (José, Micaela)
DR15 -2.58 dB -24.30 dB 3:54 03-Carmen, Act 1: "Avec la garde montante" (Children's Chorus, Moralès, José)
DR15 -1.72 dB -24.13 dB 3:44 12-Carmen, Act 1: "Mon officier, c'était une querelle" (José, Zuñiga, Carmen)
DR13 -3.17 dB -22.93 dB 1:14 04-Carmen, Act 1: "C'est bien là, n'est-ce pas?" (José, Zuñiga)
DR13 -0.01 dB -15.79 dB 2:16 01-Carmen: Prelude
DR14 -8.83 dB -30.07 dB 1:42 15-Carmen, Act 1: Entr'acte
DR12 -14.22 dB -31.52 dB 3:00 27-Carmen, Act 2: Entr'acte
DR13 -1.01 dB -19.92 dB 2:04 36-Carmen, Act 3: Entr'acte
DR13 -0.91 dB -19.36 dB 4:49 19-Carmen, Act 2: "Votre toast, je peux vous le rendre" (Escamillo, Chorus)
––––––––––––––––––––––––––––––––––––––––

Number of tracks: 39
Official DR value: DR13

Samplerate: 96000 Hz
Channels: 2
Bits per sample: 24
Bitrate: 2774 kbps
Codec: FLAC
================================================================================


Thanks to the Original customer!