Mariah Carey - Merry Christmas (1994/2014) [Official Digital Download 24-bit/96 kHz]

Posted By: HDV
Mariah Carey - Merry Christmas (1994/2014) [Official Digital Download 24-bit/96 kHz]

Mariah Carey - Merry Christmas (1994/2014)
FLAC (tracks) 24-bit/96 kHz | Time - 39:35 minutes | 896 MB
Studio Master, Official Digital Download | Artwork: Front cover
- Original Masters -

Vocal gymnastics and Christmas songs are not often thought of as a compatible combination, but on "Merry Christmas", Mariah Carey jumps, climbs, crawls, twirls, and dashes her way through both traditional fare and original Christmas songs. She shifts through styles, offering fans from all musical camps a gift of their own. There is even a "Joy to the World" medley mixing the old and the new: the traditional Christmas song and the Three Dog Night hit. And, as usual, her gospel-voiced background singers are out in full force. There are two ways to enjoy this album. One is to sit back and revel in Carey's vocal fireworks, and the other is to pour yourself a glass of eggnog, get cozy by the tree, and have yourself a Merry Christmas.

Pretensions to high opera on "O Holy Night" and a horrid dance club take on "Joy to the World." On the positive side, her co-penned (one of three) "All I Want for Christmas Is You" is a well-crafted Phil Spector tribute, with Beach Boys-style harmonies, jangling bells, and a sleigh-ride pace, injecting one of the few bits of exuberant fun in this otherwise vanilla set.

Tracklist:

01 - Silent Night
02 - All I Want For Christmas Is You
03 - O Holy Night
04 - Christmas (Baby Please Come Home)
05 - Miss You Most (At Christmas Time)
06 - Joy To The World
07 - Jesus Born On This Day
08 - Santa Claus Is Comin' To Town
09 - Hark! The Herald Angels Sing/Gloria (In Excelsis Deo)
10 - Jesus Oh What A Wonderful Child
11 - God Rest Ye Merry Gentlemen

Analyzed: Mariah Carey / Merry Christmas
––––––––––––––––––––––––––––––––––––––––

DR Peak RMS Duration Track
––––––––––––––––––––––––––––––––––––––––
DR9 -0.25 dB -12.85 dB 3:42 01-Silent Night
DR8 -0.25 dB -10.76 dB 4:02 02-All I Want For Christmas Is You
DR9 -0.25 dB -11.50 dB 4:27 03-O Holy Night
DR9 -0.25 dB -11.40 dB 2:35 04-Christmas (Baby Please Come Home)
DR10 -0.25 dB -13.92 dB 4:34 05-Miss You Most (At Christmas Time)
DR9 -0.25 dB -11.17 dB 4:20 06-Joy To The World
DR8 -0.25 dB -11.81 dB 3:43 07-Jesus Born On This Day
DR8 -0.25 dB -10.42 dB 3:25 08-Santa Claus Is Comin' To Town
DR9 -0.25 dB -13.01 dB 3:01 09-Hark! The Herald Angels Sing/Gloria (In Excelsis Deo)
DR8 -0.25 dB -10.85 dB 4:29 10-Jesus Oh What A Wonderful Child
DR12 -0.25 dB -15.96 dB 1:18 11-God Rest Ye Merry Gentlemen
––––––––––––––––––––––––––––––––––––––––

Number of tracks: 11
Official DR value: DR9

Samplerate: 96000 Hz
Channels: 2
Bits per sample: 24
Bitrate: 2869 kbps
Codec: FLAC
================================================================================


Thanks to the Original customer!