Mark Turner Quartet - Lathe Of Heaven (2014) [Official Digital Download 24/88]

Posted By: HDV
Mark Turner Quartet - Lathe Of Heaven (2014) [Official Digital Download 24/88]

Mark Turner Quartet - Lathe Of Heaven (2014)
FLAC (tracks) 24-bit/88,2 kHz | Time - 58:21 minutes | 1,08 GB
Studio Master, Official Digital Download | Artwork: Front cover

Tenor saxophonist Mark Turner makes his ECM debut as leader on this session featuring Avishai Cohen on trumpet, double bassist Joe Martin and drummer Marcus Gilmore. The quartet of kindred spirits, often entwining in serpentine fashion, plays long, introspective lines of hypnotic grace; the lithe rhythm section providing subtle volatility. With no chordal instrument in the band, the music opens up and takes on an attractive spaciousness. The songs display the long-breathed essence characteristic of Turner’s work, where melody takes priority. There is also mystery to the album, a quality of patient storytelling to the compositions.

Mark Turner Quartet - Lathe Of Heaven (2014) [Official Digital Download 24/88]

Saxophonist Mark Turner has steadily built a career as one of the lesser ballyhooed if no less talented jazz saxophonists of his generation. Indebted to such icons of musical intellectualism as Wayne Shorter, John Coltrane, and Warne Marsh, Turner has a fluid, egoless style, grounded in motivic, harmony-based improvisation that's always understated yet never fails to grab your attention. Borrowing the title from Ursula K. Le Guin's 1971 dystopian science fiction novel in which a person's dreams may or may not alter our reality, Turner's 2014 ECM release, Lathe of Heaven, is a measured, thoughtfully precise album that blurs the lines between post-bop jazz, classical chamber music, and free improvisation. Working with his pianoless quartet featuring trumpeter Avishai Cohen, bassist Joe Martin, and drummer Marcus Gilmore, Turner has developed an ensemble-based approach to jazz that sidesteps both traditional and avant-garde jazz conventions at every turn. In fact, while the aesthetics of Turner's songs lean toward free jazz (and there are certainly moments of unbridled free improv and group interplay on the album), Lathe of Heaven is noticeably devoid of the instrumental skronk and squelch often associated with freer forms of jazz. Instead, Turner's music is formal, minimalist, lacking in frenetic bebop or blues-based inflection, and primarily focused on long-form melodic statements that Turner and Cohen often play in harmonized counterpoint. This is deeply meditative, intellectual music that defies categorization while at the same time bringing to mind such disparate touchstones as '70s Kenny Wheeler, '60s Ornette Coleman, and the lyrical '50s West Coast cool of the Chet Baker and Gerry Mulligan pianoless quartet. Ultimately, in much the same way that the layers of our dreams are stripped back to reveal a deeper, more profound, and at times unsettling truth in Le Guin's novel, with his Lathe of Heaven Turner strips back layers of jazz style and language to reveal a sound that is both familiar and utterly new.

Tracklist:

01 - Lathe of Heaven
02 - Year of the Rabbit
03 - Ethan’s Line
04 - The Edenist
05 - Sonnet for Stevie
06 - Brother Sister

Produced by Manfred Eicher. Engineered by James A. Farber.
Recorded in June 2013 at Avatar Studios, New York.
Mixed in January 2014 by James A. Farber, Manfred Eicher and Mark Turner.

Musicians:
Mark Turner - tenor saxophone
Avishai Cohen - trumpet
Joe Martin - double bass
Marcus Gilmore - drums

Analyzed: Mark Turner Quartet / Lathe of Heaven
––––––––––––––––––––––––––––––––––––––––

DR Peak RMS Duration Track
––––––––––––––––––––––––––––––––––––––––
DR14 -2.37 dB -20.49 dB 6:41 01-Lathe of Heaven
DR15 -1.51 dB -20.37 dB 12:20 02-Year of the Rabbit
DR14 -2.49 dB -19.80 dB 8:01 03-Ethan’s Line
DR15 -1.21 dB -20.01 dB 8:12 04-The Edenist
DR16 -1.93 dB -22.44 dB 12:58 05-Sonnet for Stevie
DR14 -4.72 dB -22.43 dB 10:09 06-Brother Sister
––––––––––––––––––––––––––––––––––––––––

Number of tracks: 6
Official DR value: DR15

Samplerate: 88200 Hz
Channels: 2
Bits per sample: 24
Bitrate: 2379 kbps
Codec: FLAC
================================================================================


Thanks to the Original customer!