Marty Gold And His Orchestra - The Broadway Soundaroundus (1967/2016) [Official Digital Download 24/192]

Posted By: HDV
Marty Gold And His Orchestra - The Broadway Soundaroundus (1967/2016) [Official Digital Download 24/192]

Marty Gold And His Orchestra - The Broadway Soundaroundus (1967/2016)
FLAC (tracks) 24-bit/192 kHz | Time - 29:24 minutes | 1,15 GB
Studio Master, Official Digital Download | Artwork: Front cover

Martin Gold was a composer, pianist, and bandleader born in New York City, New York. He was the pianist and arranger for the Korn Kobblers, a popular 1940s novelty group billed as "America's most nonsensical dance band", but was probably best known as the composer of the song "Tell Me Why", which was a hit for The Four Aces in 1951. Mr. Gold also arranged, conducted, and recorded for RCA Victor light orchestral "mood music" pieces utilising fully the possibilities of the newly developed Stereophonic sound, with whole sections of violins drifting between right and left speakers. He produced Peter Nero's first two albums for RCA and also conducted the accompanying orchestra.

Tracklist:

01 - The Sound Of Music (from "The Sound Of Music")
02 - Holly Golightly (from "Holly Golightly")
03 - Try To Remember (from "The Fantasticks")
04 - Cabaret (from "Cabaret")
05 - I Do, I Do (from "I Do, I Do")
06 - Hello, Dolly! (from "Hello Dolly!")
07 - Breakfast At Tiffany's (from "Holly Golightly")
08 - Fiddler On The Roof (from "Fiddler On The Roof")
09 - If He Walked Into My Life (from "Mame")
10 - (He Is) Very Close To Wonderful (from "Walking Happy")
11 - Get Me To The Church On Time (from "My Fair Lady")

Recorded at Webster Hall, New York City.

Analyzed: Marty Gold And His Orchestra / The Broadway Soundaroundus
––––––––––––––––––––––––––––––––––––––––

DR Peak RMS Duration Track
––––––––––––––––––––––––––––––––––––––––
DR9 -3.36 dB -16.36 dB 2:52 01-The Sound Of Music (from "The Sound Of Music")
DR11 0.00 dB -14.72 dB 2:47 02-Holly Golightly (from "Holly Golightly")
DR10 -2.31 dB -16.97 dB 2:44 03-Try To Remember (from "The Fantasticks")
DR11 -0.29 dB -15.75 dB 2:04 04-Cabaret (from "Cabaret")
DR10 -2.42 dB -16.70 dB 3:03 05-I Do, I Do (from "I Do, I Do")
DR12 -0.03 dB -15.16 dB 2:20 06-Hello, Dolly! (from "Hello Dolly!")
DR10 -2.32 dB -16.22 dB 2:58 07-Breakfast At Tiffany's (from "Holly Golightly")
DR10 0.00 dB -13.36 dB 2:31 08-Fiddler On The Roof (from "Fiddler On The Roof")
DR10 -3.46 dB -16.46 dB 3:15 09-If He Walked Into My Life (from "Mame")
DR11 -2.16 dB -15.77 dB 2:25 10-(He Is) Very Close To Wonderful (from "Walking Happy")
DR10 -1.10 dB -13.89 dB 2:26 11-Get Me To The Church On Time (from "My Fair Lady")
––––––––––––––––––––––––––––––––––––––––

Number of tracks: 11
Official DR value: DR10

Samplerate: 192000 Hz
Channels: 2
Bits per sample: 24
Bitrate: 5467 kbps
Codec: FLAC
================================================================================


Thanks to the Original customer!