Mary Wells - Bye Bye Baby I Don't Want To Take A Chance (1961/2016) [Official Digital Download 24bit/192kHz]

Posted By: HDV
Mary Wells - Bye Bye Baby I Don't Want To Take A Chance (1961/2016) [Official Digital Download 24bit/192kHz]

Mary Wells - Bye Bye Baby I Don't Want To Take A Chance (1961/2016)
FLAC (tracks) 24 bit/192 kHz | Time - 25:57 minutes | 1,05 GB
FLAC (tracks) 24 bit/96 kHz | Time - 25:57 minutes | 569 MB
Studio Master, Official Digital Download | Artwork: Front cover

The debut album from Mary Wells, released in 1961, draws its title from the two top 10 R&B songs it contains, "Bye Bye Baby and I Don't Want to Take A Chance". Recorded when she was only 17 years old, the single Bye Bye Baby preceded the album by almost a year, introducing Wells and becoming one of Motown's first hits. "I Don't Want to Take A Chance", among the label's earliest 45s to crack the mainstream top 40, peaked at number 33.

Mary Wells wasn't yet a polished vocalist when she first signed with Motown in the early '60s, and she later became the first performer to score a Number One single and Top Ten pop hit for the label. But that didn't happen with these songs, although they have an edge, toughness, and spark, that wasn't always evident in the slicker hits that Wells made.

Tracklist:

01 - Come To Me
02 - I Don't Want To Take A Chance
03 - Bye Bye Baby
04 - Shop Around
05 - I Love The Way You Love
06 - I'm Gonna Stay
07 - Let Your Conscience Be Your Guide
08 - Bad Boy
09 - I'm So Sorry
10 - Please Forgive Me

Analyzed: Mary Wells / Bye Bye Baby I Don't Want to Take a Chance
––––––––––––––––––––––––––––––––––––––––

DR Peak RMS Duration Track
––––––––––––––––––––––––––––––––––––––––
DR11 0.00 dB -11.73 dB 2:16 01-Come To Me
DR10 0.00 dB -11.11 dB 2:50 02-I Don't Want To Take A Chance
DR11 0.00 dB -11.90 dB 2:57 03-Bye Bye Baby
DR9 0.00 dB -10.88 dB 2:39 04-Shop Around
DR11 0.00 dB -12.32 dB 2:26 05-I Love The Way You Love
DR10 0.00 dB -10.35 dB 2:46 06-I'm Gonna Stay
DR11 0.00 dB -12.04 dB 2:36 07-Let Your Conscience Be Your Guide
DR11 0.00 dB -12.74 dB 2:22 08-Bad Boy
DR11 0.00 dB -12.04 dB 2:26 09-I'm So Sorry
DR10 0.00 dB -12.69 dB 2:39 10-Please Forgive Me
––––––––––––––––––––––––––––––––––––––––

Number of tracks: 10
Official DR value: DR10

Samplerate: 192000 Hz
Channels: 2
Bits per sample: 24
Bitrate: 5468 kbps
Codec: FLAC
================================================================================


Thanks to the Original customer!