Massimo Farao Trio - Like An Elegant Wine (2020) [Venus Japan] SACD ISO + DSD64 + Hi-Res FLAC

Posted By: HDAtall
Massimo Farao Trio - Like An Elegant Wine (2020) [Venus Japan] SACD ISO + DSD64 + Hi-Res FLAC

Massimo Faraò Trio with Accademia Arrigoni's Strings Orchestra - Like An Elegant Wine (2020) [Japan]
SACD Rip | SACD ISO | DSD64 2.0 > 1-bit/2.8224 MHz | 46:32 minutes | Front/Rear Covers | 1,34 GB
or DSD64 Stereo (from SACD-ISO to Tracks.dsf) > 1-bit/2.8224 MHz | Front/Rear Covers | 1,21 GB
or FLAC (carefully converted & encoded to tracks) 24bit/96 kHz | Front/Rear Covers | 1,04 GB

Massimo Farao, who is from Italy, first visited the United States in 1983 when he played with Red Holloway. In Europe he has since worked with many top performers including Tony Scott, Jesse Davis, Franco Ambrosetti, Nat Adderley, Jack DeJohnette and a notable tour in 2007 with organist Joey DeFrancesco. Even with all of that, it is as the leader of his own trio that he really shines. Farao's passionate style and stoic romanticism are very attractive along with the rich harmonies he creates. For this release his trio accompanied with Academia Arrigoni's Strings Orchestra, conducted by Bill Cunliffe.

Tracklist:

01. Love Came On Stealthy Fingers
02. Io Che Amo Solo Te
03. An Older Man Is Like An Elegant Wine
04. Days Of Wine And Roses
05. When Summer Comes
06. The Nearness Of You
07. 'Tis Autumn
08. Easy Living
09. Spring Will Be A Little Late This Year

Personnel
Massimo Faraò - piano
Nicola Barbon - bass
Bobo Facchinetti - drums
+ Academia Arrigoni's Strings Orchestra - Conducted by Bill Cunliffe

Arranged by Bruno Cesselli, Bill Cunliffe, Claudio Chiara & Jeb Patton.
Produced, Mixed & Mastered by Tetsuo Hara. Engineered by Andrea Valfre' & Alessandro Taricco.
Recorded on February 15-16, 2020 at Magister Recording Area Studios, Preganziol, Italy.
Venus Hyper Magnum Sound Direct Mix. VENUS Japan # VHGD-360.

foobar2000 1.6.4 / Dynamic Range Meter 1.1.1

––––––––––––––––––––––––––––––––––––––––
Analyzed: Massimo Faraò Trio with Strings Orchestra / Like An Elegant Wine
––––––––––––––––––––––––––––––––––––––––

DR Peak RMS Duration Track
––––––––––––––––––––––––––––––––––––––––
DR11 -4.77 dB -19.91 dB 5:40 01-Love Came On Stealthy Fingers
DR12 -4.83 dB -20.03 dB 5:08 02-Io Che Amo Solo Te
DR12 -4.78 dB -20.68 dB 4:53 03-An Older Man Is Like An Elegant Wine
DR11 -4.67 dB -18.06 dB 4:24 04-Days Of Wine And Roses
DR12 -4.69 dB -19.75 dB 6:05 05-When Summer Comes
DR12 -5.37 dB -20.39 dB 5:15 06-The Nearness Of You
DR11 -4.66 dB -19.05 dB 5:02 07-'Tis Autumn
DR12 -5.03 dB -20.39 dB 5:14 08-Easy Living
DR12 -4.79 dB -19.99 dB 4:52 09-Spring Will Be A Little Late This Year
––––––––––––––––––––––––––––––––––––––––

Number of tracks: 9
Official DR value: DR12

Samplerate: 2822400 Hz / PCM Samplerate: 176400 Hz
Channels: 2
Bits per sample: 1
Bitrate: 5645 kbps
Codec: DSD64


Thanks to jazzyman!
Uncompressed SACD ISO size > 1,86 GB
>