Tags
Language
Tags

Mastodon - Blood Mountain (2006/2017) [Official Digital Download 24/96]

Posted By: delpotro
Mastodon - Blood Mountain (2006/2017) [Official Digital Download 24/96]

Mastodon - Blood Mountain (2006/2017)
FLAC (tracks) 24-bit/96 kHz | Front Cover | Time - 50:56 minutes | 1,18 GB
Progressive Metal | Label: Reprise Records, Official Digital Download

Dream big, aim high, and unleash the beast within. That’s the philosophy behind Mastodon’s mutant form of prog-metallurgy, as evidenced on 2006’s Blood Mountain. Singer/guitarist Brent Hinds rages like a maddened prophet confronting every Angel of Hell imaginable, howling himself raw with defiance. “Crystal Skull,” “Colony of Birchmen,” “Hand of Stone” and similar tracks invoke gore-spattered Nordic tales of the supernatural, brought to seething life with shifting tempos and stabbing guitar strokes. Beneath the album’s volcanic surface, there is surprising nuance, revealed in the jazzy undercurrents of “Capillarian Crest” and the hyperkinetic grandeur of “Bladecatcher.” “Sleeping Giant” stretches forth like a majestic arctic sea, while “Circle of Cysquatch” throbs with the fury of a flagellation ritual. Mastodon fully struts its elephantine stuff on “Pendulous Skin,” a vast, multi-textured sojourn into the band’s inner universe. At times, Blood Mountain nearly sinks into aural murkiness and lyric obscurity. Admittedly, the album is a lot to digest — but for those seeking epochal metal with a dark twist, this sprawling work offers massive satisfaction.

Tracklist:
1. The Wolf Is Loose (03:35)
2. Crystal Skull (03:24)
3. Sleeping Giant (05:36)
4. Capillarian Crest (04:25)
5. Circle of Cysquatch (03:19)
6. Bladecatcher (03:20)
7. Colony of Birchmen (04:19)
8. Hunters of the Sky (03:52)
9. Hand of Stone (03:30)
10. This Mortal Soil (05:00)
11. Siberian Divide (05:28)
12. Pendulous Skin (05:04)

foobar2000 1.4.1 / Dynamic Range Meter 1.1.1
log date: 2021-04-25 12:25:05

––––––––––––––––––––––––––––––––––––––––
Analyzed: Mastodon / Blood Mountain
––––––––––––––––––––––––––––––––––––––––

DR Peak RMS Duration Track
––––––––––––––––––––––––––––––––––––––––
DR5 -0.01 dB -5.40 dB 3:34 01-The Wolf Is Loose
DR4 -0.01 dB -6.20 dB 3:25 02-Crystal Skull
DR4 -0.01 dB -5.14 dB 5:36 03-Sleeping Giant
DR4 -0.01 dB -4.77 dB 4:25 04-Capillarian Crest
DR3 -0.01 dB -4.87 dB 3:19 05-Circle of Cysquatch
DR5 0.00 dB -6.14 dB 3:21 06-Bladecatcher
DR4 0.00 dB -5.17 dB 4:20 07-Colony of Birchmen
DR4 -0.01 dB -5.16 dB 3:52 08-Hunters of the Sky
DR3 0.00 dB -4.39 dB 3:31 09-Hand of Stone
DR4 -0.01 dB -5.52 dB 5:01 10-This Mortal Soil
DR3 -0.01 dB -4.67 dB 5:29 11-Siberian Divide
DR3 -0.01 dB -4.75 dB 5:04 12-Pendulous Skin
––––––––––––––––––––––––––––––––––––––––

Number of tracks: 12
Official DR value: DR4

Samplerate: 96000 Hz
Channels: 2
Bits per sample: 24
Bitrate: 3251 kbps
Codec: FLAC
================================================================================


Thanks to the Original customer!