Meat Loaf - Bat Out Of Hell (1977) [Reissue 2002] MCH PS3 ISO + Hi-Res FLAC

Posted By: HDAtall
Meat Loaf - Bat Out Of Hell (1977) [Reissue 2002] MCH PS3 ISO + Hi-Res FLAC

Meat Loaf - Bat Out Of Hell (1977) [Reissue 2002]
PS3 Rip | SACD ISO | DST64 2.0 & 5.1 > 1-bit/2.8224 MHz | 61:31 minutes | Scans included | 4,12 GB
or FLAC 2.0 Stereo(converted with foobar2000 to tracks) 24bit/96 kHz | Full Scans included | 1,45 GB
Features Stereo and Multichannel Surround Sound + 2 Bonus tracks

Bat Out Of Hell is the definitive masterpiece by Meat Loaf. The album is adored by countless generations and is Meat Loaf’s first collaboration with composer Jim Steinman. Bat Out Of Hell is one of the bestselling albums in music history, having sold over 43 million copies worldwide. It is included on Rolling Stone’s “500 Greatest Albums of All Time” and has been certified multi-Platinum. It reached #1 on Billboard’s Top Pop charts and features the exhilarating singles “Two Out Of Three Ain't Bad” and “Paradise By The Dashboard Light”. A must-own recording.

There is no other album like Bat Out of Hell, unless you want to count the sequel. This is Grand Guignol pop – epic, gothic, operatic, and silly, and it's appealing because of all of this. Jim Steinman was a composer without peer, simply because nobody else wanted to make mini-epics like this. And there never could have been a singer more suited for his compositions than Meat Loaf, a singer partial to bombast, albeit shaded bombast. The compositions are staggeringly ridiculous, yet Meat Loaf finds the emotional core in each song, bringing true heartbreak to "Two out of Three Ain't Bad" and sly humor to "Paradise by the Dashboard Light." There's no discounting the production of Todd Rundgren, either, who gives Steinman's self-styled grandiosity a production that's staggeringly big but never overwhelming and always alluring. While the sentiments are deliberately adolescent and filled with jokes and exaggerated clichés, there's real (albeit silly) wit behind these compositions, not just in the lyrics but in the music, which is a savvy blend of oldies pastiche, show tunes, prog rock, Springsteen-esque narratives, and blistering hard rock (thereby sounding a bit like an extension of Rocky Horror Picture Show, which brought Meat Loaf to the national stage). It may be easy to dismiss this as ridiculous, but there's real style and craft here and its kitsch is intentional. It may elevate adolescent passion to operatic dimensions, and that's certainly silly, but it's hard not to marvel at the skill behind this grandly silly, irresistible album.

Tracklist:

01. Bat Out Of Hell
02. You Took The Words Right Out Of My Mouth (Hot Summer Night)
03. Heaven Can Wait
04. All Revved Up With No Place To Go
05. Two Out Of Three Ain't Bad
06. Paradise By The Dashboard Light
07. For Crying Out Loud
08. Great Boleros Of Fire (Live Intro) [Bonus track]
09. Bat Out Of Hell (Live) [Bonus track]

SACD Stereo Track - Mastered by Vic Anesini at Sony Music Studios, New York.
5.1 Surround Mix by Frank Filipetti at Right Track Recording, Mastered by Ted Jensen at Sterling Sound.
The 5.1 Surround Mix was created using the original multitrack master tapes…

foobar2000 1.4.3 / Dynamic Range Meter 1.1.1

––––––––––––––––––––––––––––––––––––––––
Analyzed: MEAT LOAF / BAT OUT OF HELL
––––––––––––––––––––––––––––––––––––––––

DR Peak RMS Duration Track
––––––––––––––––––––––––––––––––––––––––
DR9 -6.43 dB -18.06 dB 9:50 01-Bat Out Of Hell
DR10 -5.73 dB -18.54 dB 5:06 02-You Took The Words Right Out Of My Mouth (Hot Summer Night)
DR11 -5.87 dB -20.25 dB 4:41 03-Heaven Can Wait
DR9 -6.41 dB -17.20 dB 4:19 04-All Revved Up With No Place To Go
DR9 -6.45 dB -18.24 dB 5:28 05-Two Out Of Three Ain't Bad
DR10 -6.28 dB -18.58 dB 8:26 06-Paradise By The Dashboard Light
DR9 -6.44 dB -19.61 dB 8:45 07-For Crying Out Loud
DR11 -6.12 dB -19.79 dB 3:48 08-Great Boleros Of Fire (Live Intro)
DR9 -6.33 dB -17.48 dB 11:09 09-Bat Out Of Hell (Live)
––––––––––––––––––––––––––––––––––––––––

Number of tracks: 9
Official DR value: DR10

Samplerate: 2822400 Hz / PCM Samplerate: 176400 Hz
Channels: 6
Bits per sample: 1
Bitrate: 16934 kbps
Codec: DST64
================================================================================

––––––––––––––––––––––––––––––––––––––––
Analyzed: MEAT LOAF / BAT OUT OF HELL
––––––––––––––––––––––––––––––––––––––––

DR Peak RMS Duration Track
––––––––––––––––––––––––––––––––––––––––
DR10 -5.00 dB -17.79 dB 9:50 01-Bat Out Of Hell
DR11 -5.16 dB -17.99 dB 5:04 02-You Took The Words Right Out Of My Mouth (Hot Summer Night)
DR12 -5.24 dB -20.42 dB 4:41 03-Heaven Can Wait
DR12 -5.09 dB -18.01 dB 4:19 04-All Revved Up With No Place To Go
DR13 -4.97 dB -19.80 dB 5:24 05-Two Out Of Three Ain't Bad
DR11 -4.97 dB -17.87 dB 8:29 06-Paradise By The Dashboard Light
DR10 -4.99 dB -19.78 dB 8:46 07-For Crying Out Loud
DR7 -8.73 dB -17.84 dB 3:48 08-Great Boleros Of Fire (Live Intro)
DR9 -4.27 dB -15.88 dB 11:09 09-Bat Out Of Hell (Live)
––––––––––––––––––––––––––––––––––––––––

Number of tracks: 9
Official DR value: DR11

Samplerate: 2822400 Hz / PCM Samplerate: 176400 Hz
Channels: 2
Bits per sample: 1
Bitrate: 5645 kbps
Codec: DST64


Thanks to PS³SACD!
Uncompressed SACD ISO size > 3,91 GB
>