The Melachrino Strings and Orchestra - The Ballads Of Irving Berlin (1968/2018) [Official Digital Download 24-bit/192kHz]

Posted By: HDV
The Melachrino Strings and Orchestra - The Ballads Of Irving Berlin (1968/2018) [Official Digital Download 24-bit/192kHz]

The Melachrino Strings - Play The Music Of Irving Berlin (1968/2018)
FLAC (tracks) 24-bit/192 kHz | Time - 29:22 minutes | 1,21 GB
Studio Master, Official Digital Download | Artwork: Front cover

The Melachrino Strings are perfect exponents of easy listening music, and this collection of music of Irving Berlin is the epitomy of relaxed music free of tensions. Melachrino's series of albums for RCA Victor epitomize one of the most popular and influential movements in the "moods music".

Tracklist:

01 - A Pretty Girl Is Like a Melody
02 - How Deep Is the Ocean (How High Is the Sky)
03 - Remember
04 - Blue Skies
05 - Say It with Music
06 - Always
07 - The Girl That I Marry
08 - What'll I Do
09 - When I Lost You
10 - The Song Is Ended (But the Melody Lingers On)

Analyzed: The Melachrino Strings / The Melachrino Strings Play the Music of Irving Berlin
––––––––––––––––––––––––––––––––––––––––

DR Peak RMS Duration Track
––––––––––––––––––––––––––––––––––––––––
DR9 -0.44 dB -13.63 dB 2:41 01-A Pretty Girl Is Like a Melody
DR9 -0.44 dB -12.87 dB 3:22 02-How Deep Is the Ocean (How High Is the Sky)
DR9 -0.44 dB -12.92 dB 1:55 03-Remember
DR10 -0.44 dB -14.27 dB 3:29 04-Blue Skies
DR10 -0.44 dB -14.72 dB 2:25 05-Say It with Music
DR10 -0.44 dB -13.45 dB 3:37 06-Always
DR8 -0.44 dB -11.64 dB 3:29 07-The Girl That I Marry
DR7 -0.44 dB -9.98 dB 3:04 08-What'll I Do
DR9 -0.44 dB -12.13 dB 2:29 09-When I Lost You
DR9 -0.44 dB -11.77 dB 2:52 10-The Song Is Ended (But the Melody Lingers On)
––––––––––––––––––––––––––––––––––––––––

Number of tracks: 10
Official DR value: DR9

Samplerate: 192000 Hz
Channels: 2
Bits per sample: 24
Bitrate: 5659 kbps
Codec: FLAC
================================================================================


Thanks to the Original customer!