Tags
Language
Tags

Metallica - The $5.98 E.P.: Garage Days Re-Revisited (1987/2018) [Official Digital Download 24-bit/96kHz]

Posted By: HDV
Metallica - The $5.98 E.P.: Garage Days Re-Revisited (1987/2018) [Official Digital Download 24-bit/96kHz]

Metallica - The $5.98 E.P.: Garage Days Re-Revisited (1987) [Remastered 2018]
FLAC (tracks) 24-bit/96 kHz | Time - 24:49 minutes | 628 MB
Studio Master, Official Digital Download | Artwork: Front cover

Long out of print for nearly 30-years, the classic 1987 EP "The $5.98 EP - Garage Days Re-Revisited" has returned! This five-song limited edition cassette was remastered by Chris Bellman at Bernie Grundman Mastering, Hollywood, CA.

Following Cliff Burton's death, Metallica took some time off and initiated new bassist Jason Newsted with a raw, unpolished EP of covers originally recorded by Diamond Head, Holocaust, Killing Joke, Budgie, and the Misfits. Most fit the band's style quite well; only "Last Caress" sounds out of place, as the original seemed looser and more dangerous. As a showcase for some strong metal riffs and material by mostly underground bands, the EP works quite well.

Tracklist:

01 - Helpless
02 - The Small Hours
03 - The Wait
04 - Crash Course in Brain Surgery
05 - Last Caress / Green Hell

Remastered in 2018 by Chris Bellman at Bernie Grundman Mastering, Hollywood, CA.

Analyzed: Metallica / The $5.98 E.P.: Garage Days Re-Revisited (Remastered 2018)
––––––––––––––––––––––––––––––––––––––––

DR Peak RMS Duration Track
––––––––––––––––––––––––––––––––––––––––
DR10 -0.10 dB -11.73 dB 6:38 01-Helpless (Remastered)
DR10 -0.10 dB -11.82 dB 6:41 02-The Small Hours (Remastered)
DR12 -0.10 dB -13.39 dB 4:52 03-The Wait (Remastered)
DR11 -0.35 dB -13.26 dB 3:09 04-Crash Course in Brain Surgery (Remastered)
DR12 -0.20 dB -12.87 dB 3:30 05-Last Caress / Green Hell (Remastered)
––––––––––––––––––––––––––––––––––––––––

Number of tracks: 5
Official DR value: DR11

Samplerate: 96000 Hz
Channels: 2
Bits per sample: 24
Bitrate: 3361 kbps
Codec: FLAC
================================================================================


Thanks to the Original customer!