Tags
Language
Tags

Michael Jackson - Got To Be There (1972/2013) [Official Digital Download 24bit/192kHz]

Posted By: HDV
Michael Jackson - Got To Be There (1972/2013) [Official Digital Download 24bit/192kHz]

Michael Jackson - Got To Be There (1972/2013)
FLAC (tracks) 24 bit/192 kHz | Time - 35:29 minutes | 1,54 GB
FLAC (tracks) 24 bit/96 kHz | Time - 35:29 minutes | 816 MB
Studio Master, Official Digital Download | Artwork: Front cover

"Got To Be There" is the irresistible solo debut by Michael Jackson. With over three million copies sold worldwide, the album is led by the title track and “Rockin’ Robin”. Both singles reached the Top Ten on the Billboard Hot 100. Got To Be There reached the Billboard Top Twenty and also peaked at #3 on Billboard’s Top R&B Albums. This undeniable classic is a piece of music history.

Riding high on the wild success of the Jackson 5, Motown ringleader Berry Gordy assembled every single notable production team member and songwriter in his arsenal to contribute to the solo debut of the J5's boy wonder, Michael. By the time Got to Be There was released, much had changed in the Jackson dynamic, none the least Michael's voice. But this album launched three chart singles: a cover of the bubblegum classic "Rockin' Robin," Leon Ware's "I Wanna Be Where You Are," and the title track. As a cohesive album, Got to Be There is wildly erratic, and his covers of "You've Got a Friend" and "Ain't No Sunshine" show Jackson's versatility as a singer. It was a world away from the politically charged sound of Marvin Gaye's What's Going On and the introspection that would later grace some of the best works of Stevie Wonder. But Got to Be There kept Gordy as king of the sound of young America – at least for a few months longer.

Tracklist:

01 - Ain't No Sunshine
02 - I Wanna Be Where You Are
03 - Girl Don't Take Your Love From Me
04 - In Our Small Way
05 - Got To Be There
06 - Rockin' Robin
07 - Wings Of My Love
08 - Maria (You Were The Only One)
09 - Love Is Here And Now You're Gone
10 - You've Got A Friend

Analyzed: Michael Jackson / Got To Be There
––––––––––––––––––––––––––––––––––––––––

DR Peak RMS Duration Track
––––––––––––––––––––––––––––––––––––––––
DR12 0.00 dB -13.50 dB 4:12 01-Ain't No Sunshine
DR13 0.00 dB -15.80 dB 3:01 02-I Wanna Be Where You Are
DR12 0.00 dB -13.46 dB 3:48 03-Girl Don't Take Your Love From Me
DR13 0.00 dB -14.27 dB 3:43 04-In Our Small Way
DR14 0.00 dB -15.73 dB 3:17 05-Got To Be There
DR13 0.00 dB -14.02 dB 2:36 06-Rockin' Robin
DR12 0.00 dB -13.92 dB 3:23 07-Wings Of My Love
DR13 0.00 dB -14.79 dB 3:42 08-Maria (You Were The Only One)
DR12 0.00 dB -13.47 dB 2:50 09-Love Is Here And Now You're Gone
DR13 0.00 dB -14.46 dB 4:54 10-You've Got A Friend
––––––––––––––––––––––––––––––––––––––––

Number of tracks: 10
Official DR value: DR13

Samplerate: 192000 Hz
Channels: 2
Bits per sample: 24
Bitrate: 5956 kbps
Codec: FLAC
================================================================================


Thanks to the Original customer!