Michael Jackson - Thriller (1982/2013) [Official Digital Download 24bit/176,4kHz] RE-UP

Posted By: HDV
Michael Jackson - Thriller (1982/2013) [Official Digital Download 24bit/176,4kHz] RE-UP

Michael Jackson - Thriller (1982/2013)
FLAC (tracks) 24 bit/176,4 kHz | Time - 42:19 minutes | 1,87 GB
Studio Master, Official Digital Download | Artwork: Digital Booklet

The King of Pop’s legendary masterpiece, Thriller, remains the bestselling album of all time. Produced by Quincy Jones, this landmark pop recording showcases Jackson’s undeniable genius. Thriller features the classics “Wanna Be Startin' Somethin’,” “The Girl Is Mine,” “Thriller,” “Beat It,” “Billie Jean,” “Human Nature,” “P.Y.T. (Pretty Young Thing)” and more. The album won an unprecedented seven GRAMMYS and is featured on numerous “Best Of” lists including Rolling Stone, Vibe, Slant Magazine and Q. Thriller is a definitive record in music history. A must-have.

Off the Wall was a massive success, spawning four Top Ten hits (two of them number ones), but nothing could have prepared Michael Jackson for Thriller. Nobody could have prepared anybody for the success of Thriller, since the magnitude of its success was simply unimaginable – an album that sold 40 million copies in its initial chart run, with seven of its nine tracks reaching the Top Ten (for the record, the terrific "Baby Be Mine" and the pretty good ballad "The Lady in My Life" are not like the others). This was a record that had something for everybody, building on the basic blueprint of Off the Wall by adding harder funk, hard rock, softer ballads, and smoother soul – expanding the approach to have something for every audience. That alone would have given the album a good shot at a huge audience, but it also arrived precisely when MTV was reaching its ascendancy, and Jackson helped the network by being not just its first superstar, but first black star as much as the network helped him. This all would have made it a success (and its success, in turn, served as a new standard for success), but it stayed on the charts, turning out singles, for nearly two years because it was really, really good. True, it wasn't as tight as Off the Wall – and the ridiculous, late-night house-of-horrors title track is the prime culprit, arriving in the middle of the record and sucking out its momentum – but those one or two cuts don't detract from a phenomenal set of music. It's calculated, to be sure, but the chutzpah of those calculations (before this, nobody would even have thought to bring in metal virtuoso Eddie Van Halen to play on a disco cut) is outdone by their success. This is where a song as gentle and lovely as "Human Nature" coexists comfortably with the tough, scared "Beat It," the sweet schmaltz of the Paul McCartney duet "The Girl Is Mine," and the frizzy funk of "P.Y.T. (Pretty Young Thing)." And, although this is an undeniably fun record, the paranoia is already creeping in, manifesting itself in the record's two best songs: "Billie Jean," where a woman claims Michael is the father of her child, and the delirious "Wanna Be Startin' Something," the freshest funk on the album, but the most claustrophobic, scariest track Jackson ever recorded. These give the record its anchor and are part of the reason why the record is more than just a phenomenon. The other reason, of course, is that much of this is just simply great music.

Tracklist:

01 - Wanna Be Startin' Somethin'
02 - Baby Be Mine
03 - The Girl Is Mine
04 - Thriller
05 - Beat It
06 - Billie Jean
07 - Human Nature
08 - P.Y.T. (Pretty Young Thing)
09 - The Lady in My Life

Analyzed: Michael Jackson / Thriller
––––––––––––––––––––––––––––––––––––––––

DR Peak RMS Duration Track
––––––––––––––––––––––––––––––––––––––––
DR12 -3.85 dB -17.49 dB 6:03 01-Wanna Be Startin' Somethin'
DR13 -2.67 dB -18.44 dB 4:20 02-Baby Be Mine
DR13 -1.96 dB -17.54 dB 3:42 03-The Girl Is Mine
DR13 -2.79 dB -17.83 dB 5:59 04-Thriller
DR13 -0.39 dB -16.09 dB 4:18 05-Beat It
DR16 -0.16 dB -17.51 dB 4:54 06-Billie Jean
DR13 -4.08 dB -18.83 dB 4:06 07-Human Nature
DR13 -2.80 dB -17.81 dB 3:58 08-P.Y.T. (Pretty Young Thing)
DR14 -1.42 dB -19.89 dB 4:58 09-The Lady in My Life
––––––––––––––––––––––––––––––––––––––––

Number of tracks: 9
Official DR value: DR13

Samplerate: 176400 Hz
Channels: 2
Bits per sample: 24
Bitrate: 5945 kbps
Codec: FLAC
================================================================================


Thanks to the Original customer!


H E R E

password: AvaxHome


H E R E

password: AvaxHome




.