Tags
Language
Tags

Michael Jackson - Xscape {Deluxe Version} (2014) [Official Digital Download 24bit/96kHz]

Posted By: HDV
Michael Jackson - Xscape {Deluxe Version} (2014) [Official Digital Download 24bit/96kHz]

Michael Jackson - Xscape (2014) [Deluxe Version]
FLAC (tracks) 24 bit/96 kHz | Time - 73:25 minutes | 1,64 GB
Studio Master, Official Digital Download | Artwork: CD covers

"Xscape" is another album of previously unreleased Michael Jackson songs. The album is produced and curated by Epic Records Chairman and CEO L.A. Reid, who retooled the production to add a fresh, contemporary sound that retains Jackson's essence and integrity. It's a process Reid calls "contemporizing". The list of producers include global hitmakers Timbaland, Rodney Jerkins, Stargate, and John McClain.

Underneath it all, underneath all the keyboards and programmed rhythms designed to bring the music on XSCAPE into the 21st century, is this simple fact: the lead single, "Love Never Felt So Good," was co-written by Paul Anka, a superstar of another era who never quite made his presence known in the new millennium. Jackson didn't care. MJ loved old show biz and songcraft in equal measure and that love can be heard on "Love Never Felt So Good," along with the other seven songs on XSCAPE. Only the second major posthumous release in his catalog – he passed in 2009 on the eve of an orchestrated comeback – XSCAPE delves deep into that past, excavating songs that have been languishing in the vaults for various reasons since at least 1983 or perhaps later. Exact dates aren't published because XSCAPE isn't meant to be an archival release, it's designed to push Jackson back onto the charts, which means "Love Never Felt So Good" is constructed as a duet with Justin Timberlake, who is as eager as a puppy to sing with his idol. That he's not really trading lines with MJ doesn't matter; his presence is endorsement, ensuring chart attention which it might not have received. The deluxe edition of XSCAPE contains the original demos of the eight songs on this album – it's a short record by any measure – and, ultimately, these are fascinating in a way the finished tracks aren't; these spare voice and keyboard sketches are nevertheless full-bodied, so it's possible to imagine how the songs would've fit on Bad, Dangerous, or Invincible. Often, the demos reveal how strong Jackson's songwriting is – they're so flexible, they could withstand any number of arrangements, which is why "Love Never Felt So Good" is so instructive. In its original voice-and-piano arrangement it's possible to hear its glitzy show biz roots via Anka, but the production – supervised by L.A. Reid and Timbaland – is clever, accentuating Off the Wall while being spare and clean enough to sound modern. This is especially true of the version of "Love," which is a duet with Justin Timberlake – the show biz kid is happy to create an illusion – but the entire affair is savvier than 2010's Michael, which was caught between the twilight of sentiment and commerce. XSCAPE considers Jackson's legacy quite carefully, deciding to emphasize the splashy soul and diluted disco of Off the Wall over the triumphant Thriller or any of the calculated records that followed in its wake. If he had lived, Jackson likely wouldn't have followed this path – everything from Bad and beyond showed he was acutely aware of pop trends, often to his detriment (he'd hold himself back instead of engage) – but that's also the appeal of XSCAPE. Timbaland and Reid evoke the Michael Jackson we all love and miss, finding songs that are worthy and giving them arrangements that are simultaneously nostalgic and modern. It's a difficult trick to pull off but they largely succeed, so XSCAPE is a worthy and memorable coda to Jackson's career.

Tracklist:

01 - Love Never Felt So Good
02 - Chicago
03 - Loving You
04 - A Place With No Name
05 - Slave to the Rhythm
06 - Do You Know Where Your Children Are
07 - Blue Gangsta
08 - Xscape
09 - Love Never Felt So Good (Original Version)
10 - Chicago (Original Version)
11 - Loving You (Original Version)
12 - A Place With No Name (Original Version)
13 - Slave To The Rhythm (Original Version)
14 - Do You Know Where Your Children Are (Original Version)
15 - Blue Gangsta (Original Version)
16 - Xscape (Original Version)
17 - Love Never Felt So Good (Feat. Justin Timberlake)

Note: Album contains tracks in 44k/48k tracking with 96/24 overdubs. Mixed & Mastered to 96/24.

Analyzed: Michael Jackson / Xscape (Deluxe HD Version)
––––––––––––––––––––––––––––––––––––––––

DR Peak RMS Duration Track
––––––––––––––––––––––––––––––––––––––––
DR5 -0.10 dB -7.01 dB 3:55 01-Love Never Felt So Good
DR7 -0.05 dB -8.32 dB 4:06 02-Chicago
DR6 -0.02 dB -8.21 dB 3:15 03-Loving You
DR3 -0.02 dB -4.34 dB 5:35 04-A Place With No Name
DR5 -0.02 dB -6.96 dB 4:15 05-Slave to the Rhythm
DR5 -0.08 dB -6.86 dB 4:36 06-Do You Know Where Your Children Are
DR5 -0.02 dB -7.10 dB 4:14 07-Blue Gangsta
DR6 -0.03 dB -6.80 dB 4:05 08-Xscape
DR9 -0.10 dB -11.93 dB 3:20 09-Love Never Felt So Good (Original Version)
DR6 -0.10 dB -6.59 dB 4:43 10-Chicago (Original Version)
DR7 -0.10 dB -8.49 dB 3:02 11-Loving You (Original Version)
DR6 -0.10 dB -8.41 dB 4:55 12-A Place With No Name (Original Version)
DR8 -0.10 dB -9.12 dB 4:36 13-Slave To The Rhythm (Original Version)
DR6 -0.10 dB -7.37 dB 4:39 14-Do You Know Where Your Children Are (Original Version)
DR6 0.00 dB -7.18 dB 4:17 15-Blue Gangsta (Original Version)
DR5 -0.10 dB -7.72 dB 5:44 16-Xscape (Original Version)
DR6 -0.10 dB -7.68 dB 4:06 17-Love Never Felt So Good
––––––––––––––––––––––––––––––––––––––––

Number of tracks: 17
Official DR value: DR6

Samplerate: 96000 Hz
Channels: 2
Bits per sample: 24
Bitrate: 3090 kbps
Codec: FLAC
================================================================================


Thanks to the Original customer!