Michele Lee - A Taste Of The Fantastic (1966/2016) [Official Digital Download 24-bit/192kHz]

Posted By: HDV
Michele Lee - A Taste Of The Fantastic (1966/2016) [Official Digital Download 24-bit/192kHz]

Michele Lee - A Taste Of The Fantastic (1966/2016)
FLAC (tracks) 24-bit/192 kHz | Time - 31:02 minutes | 1,24 GB
FLAC (tracks) 24-bit/96 kHz | Time - 31:02 minutes | 738 MB
Studio Master, Official Digital Download | Artwork: Front cover

Although best remembered for her role as matriarch Karen Fairgate MacKenzie on the long-running prime-time soap opera Knots Landing, Michele Lee also enjoyed a career as a recording artist during the late '60s, scoring a minor pop hit with 1968's "L. David Sloane". "A Taste Of The Fantastic" is her delut album, released in 1966 via Columbia Records.

Born Michelle Lee Dusick in Los Angeles on June 24, 1942, she was the daughter of Hollywood makeup artist Jack Dusick. By age three she was singing professionally, and made her television debut in a 1959 episode of The Many Loves of Dobie Gillis. In 1961 Lee co-starred in the Broadway smash How to Succeed in Business Without Really Trying, later reprising her role as Rosemary in the 1967 feature film version. By 1963, she was a regular television presence, appearing on The Danny Kaye Show, What's My Line, and Match Game. Following successful nightclub appearances at venues including New York City's Persian Room and Las Vegas' Sands Hotel, Lee signed to Columbia Records to release her 1967 debut LP, A Taste of the Fantastic. L. David Sloane followed a year later, coinciding with her co-starring role in the Disney blockbuster The Love Bug. After 1969's feature The Comic, Lee returned to television, guesting on series including Love American Style and Marcus Welby M.D. In 1974, she also headlined her own failed sitcom pilot, The Michele Lee Show, and earned Tony Award nomination for her work in the Broadway production Seesaw. After the 1976 death of her mother, Lee withdrew from the spotlight for several years before resurfacing in 1979 on the Dallas spinoff Knots Landing. She remained with the series throughout its 14-season network run, setting the record for the most consecutive appearances by an actress in a prime-time dramatic series with 344. By the 1989 season Lee was occasionally directing episodes of Knots Landing as well, and after playing the title role in the 1995 telefilm Big Dreams and Broken Hearts: The Dottie West Story, she co-wrote and directed the 1996 Lifetime production Color Me Perfect. Lee returned to Broadway in the 2000 production Tale of the Allergist's Wife, and four years later appeared in the romantic comedy Along Came Polly, her first feature film work in 35 years.

Tracklist:

01 - I Want to Be With You
02 - What the World Needs Now Is Love
03 - You've Got to Learn
04 - Laugh, Clown, Laugh
05 - Feeling Good
06 - I'll Never Go There Anymore
07 - Yesterday
08 - I'm Old Fashioned
09 - Sorry for Myself
10 - Steady, Steady
11 - You Were There

Arranged & Conducted by Ray Ellis.

Analyzed: Michele Lee / A Taste Of The Fantastic
––––––––––––––––––––––––––––––––––––––––

DR Peak RMS Duration Track
––––––––––––––––––––––––––––––––––––––––
DR6 -0.02 dB -7.45 dB 3:02 01-I Want to Be With You
DR6 -0.02 dB -9.07 dB 3:02 02-What the World Needs Now Is Love
DR6 -0.02 dB -8.16 dB 2:51 03-You've Got to Learn
DR6 -0.02 dB -9.80 dB 2:36 04-Laugh, Clown, Laugh
DR6 -0.02 dB -7.40 dB 2:11 05-Feeling Good
DR7 -0.02 dB -9.60 dB 3:18 06-I'll Never Go There Anymore
DR6 -0.02 dB -8.48 dB 2:26 07-Yesterday
DR6 -0.02 dB -9.34 dB 3:18 08-I'm Old Fashioned
DR6 -0.02 dB -10.39 dB 3:00 09-Sorry for Myself
DR6 -0.02 dB -8.13 dB 2:38 10-Steady, Steady
DR6 -0.02 dB -7.86 dB 2:40 11-You Were There
––––––––––––––––––––––––––––––––––––––––

Number of tracks: 11
Official DR value: DR6

Samplerate: 192000 Hz
Channels: 2
Bits per sample: 24
Bitrate: 5584 kbps
Codec: FLAC
================================================================================


Thanks to the Original customer!