Miles Davis - Miles Davis And Horns (1956/2016) [Official Digital Download 24bit/192kHz]

Posted By: HDV
Miles Davis - Miles Davis And Horns (1956/2016) [Official Digital Download 24bit/192kHz]

Miles Davis - Miles Davis And Horns (1956/2016)
FLAC (tracks) 24 bit/192 kHz | Time - 33:41 minutes | 867 MB
Studio Master, MONO, Official Digital Download | Artwork: Digital booklet

Miles Davis is backed up by two different groups on these songs taken from various 10-inch vinyl releases, recorded in 1951 and 1953 and released in 1956. The earlier session features Sonny Rollins on saxophone, Bennie Green on trombone, John Lewis on piano, bassist Percy Heath and drummer Roy Haynes. The 1953 session also features Lewis, with Zoot Sims, Al Cohn and Sonny Truitt joining Davis on the front line, backed by the rhythm section of bassist Leonard Gaskin and drummer Kenny Clarke.

Miles Davis' first studio session for Prestige Records took place on January 17, 1951, with a front line of Sonny Rollins on tenor and Bennie Green on trombone. Two years later, Davis made his second session of 1953 in the company of two tenor men deeply touched by the work of Lester Young and Charlie Parker: Al Cohn and Zoot Sims, two of Woody Herman's famous Four Brothers. These two sessions, featuring a pair of three-horn front lines, make up the music on Miles and Horns. The John Lewis opener 'Morpheus' proceeds from where Birth of the Cool left off, with the horns harmonizing off a sustained bass vamp/cymbal roll, then introducing a Roy Haynes drum break with fleet lines that pave the way for boppish solos. Davis' own 'Down' is an early snapshot of the trumpeter's pensive blues work, with some contrasting Rollins bluster. Other highlights are Lewis' spectral chordal prologue to 'Blue Room' and his Basie-style intro to 'Whispering,' a song on which Davis' attack and tone really come together. 'I Know' is a Rollins feature, with Davis on piano. The 1953 date is a delightful blowing session, with Kenny Clarke providing plenty of percussive salsa, and Al Cohn providing masterful charts. Cohn, Sims, and Davis team up to provide distinctive, rich harmonies on themes such as the slow, soulful 'Tasty Pudding' and 'For Adults Only,' with their introspective features. 'Willie the Wailer' borrows its intro from Benny Goodman's 'Soft Winds' and provides Davis and Cohn with plenty of swing drive. The call and response of 'Floppy' leads to powerful Davis-Clarke interplay, a taut John Lewis solo, and an anthemic Cohn-Sims exchanges.

Tracklist:

01 - Tasty Pudding
02 - Floppy
03 - Willie The Wailer
04 - For Adults Only
05 - Morpheus
06 - Down
07 - Blue Room (Take 2)
08 - Blue Room (Take 1)
09 - Whispering

Produced by Bob Weinstock / Ira Gitler.
Tracks "1-4" - Recorded on February 19, 1953 at Beltone Studios, New York City.
Tracks "5-8" - Recorded on January 17, 1951 at Apex Studios, New York City.
Digitally Remastered.

Tracks 1-4:
Miles Davis – Trumpet
Zoot Sims – Tenor Saxophone
Al Cohn – Tenor Saxophone
Sonny Truitt – Trombone
John Lewis – Piano
Leonard Gaskin – Bass
Kenny Clarke – Drums

Tracks 5-8:
Miles Davis – Trumpet
Sonny Rollins – Tenor Saxophone
Bennie Green – Trombone
John Lewis – Piano
Percy Heath – Bass
Roy Haynes – Drums


Analyzed: Miles Davis / Miles Davis And Horns
––––––––––––––––––––––––––––––––––––––––

DR Peak RMS Duration Track
––––––––––––––––––––––––––––––––––––––––
DR11 -0.10 dB -12.95 dB 3:24 01-Tasty Pudding
DR11 -0.10 dB -12.59 dB 6:04 02-Floppy
DR10 -0.10 dB -11.64 dB 4:28 03-Willie The Wailer
DR13 -0.10 dB -14.82 dB 5:36 04-For Adults Only
DR11 -0.10 dB -14.99 dB 2:24 05-Morpheus
DR11 -0.10 dB -12.86 dB 2:53 06-Down
DR11 -1.25 dB -15.59 dB 3:01 07-Blue Room (Take 2)
DR10 -1.11 dB -16.13 dB 2:50 08-Blue Room (Take 1)
DR10 -0.10 dB -12.33 dB 3:01 09-Whispering
––––––––––––––––––––––––––––––––––––––––

Number of tracks: 9
Official DR value: DR11

Samplerate: 192000 Hz
Channels: 2
Bits per sample: 24
Bitrate: 3940 kbps
Codec: FLAC
================================================================================


Thanks to the Original customer!