Miles Davis - Dig (1956/2016) [Official Digital Download 24bit/192kHz]

Posted By: HDV
Miles Davis - Dig (1956/2016) [Official Digital Download 24bit/192kHz]

Miles Davis, Sonny Rollins - Dig (1956/2016)
FLAC (tracks) 24 bit/192 kHz | Time - 35:02 minutes | 751 MB
Studio Master, MONO, Official Digital Download | Artwork: Digital booklet

Recorded in one day in October 1951, these tracks allowed Miles Davis and Sonny Rollins to stretch out together like they had never done in the studio before, delivering fluid solos with warmth and emotion. The rest of the musicians on this pivotal session are equally praiseworthy: a teenage Jackie McLean on alto sax on most songs, pianist Walter Bishop and bassist Tommy Porter, all held together by the explosive drive of drummer Art Blakey.

Tenor saxophonist Sonny Rollins was present as a member of the Miles Davis sextet (alto saxophonist Jackie McLean, pianist Walter Bishop, bassist Tommy Potter, drummer Art Blakey) on Dig, which was part of a 10/5/51 session, all of which was also on a two-fer. I love this music, but I have to admit it sounds dated. This wasn't Miles Davis' best, but I've always appreciated it for McLean's cutting sax work.

Tracklist:

01 - Dig
02 - It's Only A Paper Moon
03 - Denial
04 - Bluing
05 - Out Of The Blue

Produced by Bob Weinstock.
Recorded on October 5, 1951 at Apex Studio, New York.
Digitally Remastered.

Musicians:
Miles Davis - trumpet
Jackie McLean - alto saxophone (on Davis originals only)
Sonny Rollins - tenor saxophone
Walter Bishop, Jr. - piano
Tommy Potter - double bass
Art Blakey - drums

Analyzed: Miles Davis / Dig
––––––––––––––––––––––––––––––––––––––––

DR Peak RMS Duration Track
––––––––––––––––––––––––––––––––––––––––
DR12 -1.20 dB -14.85 dB 7:37 01-Dig
DR13 -1.48 dB -16.26 dB 5:27 02-It's Only A Paper Moon
DR13 -0.10 dB -15.28 dB 5:42 03-Denial
DR14 -1.06 dB -18.07 dB 10:00 04-Bluing
DR13 -0.83 dB -16.96 dB 6:16 05-Out Of The Blue
––––––––––––––––––––––––––––––––––––––––

Number of tracks: 5
Official DR value: DR13

Samplerate: 192000 Hz
Channels: 2
Bits per sample: 24
Bitrate: 2854 kbps
Codec: FLAC
================================================================================


Thanks to the Original customer!