Subcategories

Miles Davis - E.S.P. (1965) [MFSL 2016] PS3 ISO + Hi-Res FLAC

Posted By: HDAtall
Miles Davis - E.S.P. (1965) [MFSL 2016] PS3 ISO + Hi-Res FLAC

Miles Davis - E.S.P. (1965) [MFSL 2016]
PS3 Rip | SACD ISO | DSD64 2.0 > 1-bit/2.8224 MHz | 48:02 minutes | Scans included | 1,43 GB
or FLAC(converted with foobar2000 to tracks) 24bit/88,2 kHz | Full Scans included | 980 MB
Mobile Fidelity Sound Lab # UDSACD 2170

ESP marks the beginning of a revitalization for Miles Davis, as his second classic quintet – saxophonist Wayne Shorter, pianist Herbie Hancock, bassist Ron Carter, and drummer Tony Williams – gels, establishing what would become their signature adventurous hard bop. Miles had been moving toward this direction in the two years preceding the release of ESP and he had recorded with everyone outside of Shorter prior to this record, but his addition galvanizes the group, pushing them toward music that was recognizably bop but as adventurous as jazz's avant-garde. Outwardly, this music doesn't take as many risks as Coltrane or Ornette Coleman's recordings of the mid-'60s, but by borrowing some of the same theories – a de-emphasis of composition in favor of sheer improvisation, elastic definitions of tonality – they created a unique sound that came to define the very sound of modern jazz. Certainly, many musicians have returned to this group for inspiration, but their recordings remain fresh, because they exist at this fine dividing line between standard bop and avant. On ESP, they tilt a bit toward conventional hard bop (something that's apparent toward the end of the record), largely because this is their first effort, but the fact is, this difference between this album and hard bop from the early '60s is remarkable. This is exploratory music, whether it's rushing by in a flurry of notes or elegantly reclining in Hancock's calm yet complex chords. The compositions are brilliantly structured as well, encouraging such free-form exploration with their elliptical yet memorable themes. This quintet may have cut more adventurous records, but ESP remains one of their very best albums.

Tracklist:

01. E.S.P.
02. Eighty-One
03. Little One
04. R.J.
05. Agitation
06. Iris
07. Mood

Mastered for SACD by Rob LoVerde at Mobile Fidelity Sound Lab.

foobar2000 1.3.10 / Dynamic Range Meter 1.1.1

––––––––––––––––––––––––––––––––––––––––
Analyzed: MILES DAVIS / E.S.P.
––––––––––––––––––––––––––––––––––––––––

DR Peak RMS Duration Track
––––––––––––––––––––––––––––––––––––––––
DR13 -7.18 dB -22.73 dB 5:28 01-E.S.P.
DR12 -6.34 dB -20.77 dB 6:12 02-Eighty-One
DR10 -7.92 dB -23.18 dB 7:21 03-Little One
DR12 -7.12 dB -20.75 dB 3:58 04-R.J.
DR11 -7.26 dB -22.21 dB 7:43 05-Agitation
DR10 -8.83 dB -23.01 dB 8:30 06-Iris
DR10 -7.73 dB -23.54 dB 8:49 07-Mood
––––––––––––––––––––––––––––––––––––––––

Number of tracks: 7
Official DR value: DR11

Samplerate: 2822400 Hz / PCM Samplerate: 88200 Hz
Channels: 2
Bits per sample: 24
Bitrate: 5645 kbps
Codec: DSD64


Thanks to PS³SACD!
Uncompressed SACD ISO size > 1,94 GB

MILES DAVIS on SACDs
>
SACD ISO 1
SACD ISO 2
FLAC
>