Tags
Language
Tags

Miles Davis - My Funny Valentine (1965) [MFSL 2014] PS3 ISO + DSD64 + Hi-Res FLAC

Posted By: HDAtall
Miles Davis - My Funny Valentine (1965) [MFSL 2014] PS3 ISO + DSD64 + Hi-Res FLAC

Miles Davis - My Funny Valentine: Miles Davis in Concert (1965) [MFSL 2014]
PS3 Rip | SACD ISO | DSD64 2.0 > 1-bit/2.8224 MHz | 63:49 minutes | Scans included | 1,91 GB
or DSD64 2.0 (from SACD-ISO to Tracks.dsf) > 1-bit/2.8224 MHz | Full Scans included | 1,74 GB
or FLAC (carefully converted & encoded to tracks) 24bit/96 kHz | Full Scans included | 1,45 GB

My Funny Valentine: Miles Davis in Concert is a 1965 live album by Miles Davis. It was recorded at a concert at the Philharmonic Hall of Lincoln Center, New York City, NY, on February 12, 1964. Miles also recorded a studio version of the title song, muted, with piano trio backing in 1956. Two albums were assembled from the concert recording. The up-tempo pieces were issued as Four & More, while My Funny Valentine consists of the slow and medium-tempo numbers.

Miles Davis' concert of February 12, 1964, was divided into two LPs, with all of the ballads put on My Funny Valentine. These five lengthy tracks (specifically, "All of You," "Stella by Starlight," "All Blues," "I Thought About You," and the title cut) put the emphasis on the lyricism of Davis, along with some strong statements from tenor saxophonist George Coleman and freer moments from the young rhythm section of pianist Herbie Hancock, bassist Ron Carter, and drummer Tony Williams. This hour-long LP complements the up-tempo romps of Four & More.

Tracklist:

01. My Funny Valentine
02. All Of You
03. Stella By Starlight
04. All Blues
05. I Thought About You

Personnel
Miles Davis - trumpet
George Coleman - tenor saxophone
Herbie Hancock - piano
Ron Carter - double bass
Tony Williams - drums

Recorded on February 12, 1964 at Philharmonic Hall of Lincoln Center, NYC.
Mastered by Rob LoVerde at Mobile Fidelity Sound Lab, Sebastopol, CA.

foobar2000 1.6.7 / Dynamic Range Meter 1.1.1

––––––––––––––––––––––––––––––––––––––––
Analyzed: MILES DAVIS In Concert / My Funny Valentine
––––––––––––––––––––––––––––––––––––––––

DR Peak RMS Duration Track
––––––––––––––––––––––––––––––––––––––––
DR12 -7.36 dB -24.04 dB 15:12 01-My Funny Valentine
DR13 -8.31 dB -24.65 dB 15:10 02-All Of You
DR12 -5.65 dB -21.86 dB 13:07 03-Stella By Starlight
DR12 -6.17 dB -20.96 dB 9:01 04-All Blues
DR13 -5.40 dB -22.16 dB 11:20 05-I Thought About You
––––––––––––––––––––––––––––––––––––––––

Number of tracks: 5
Official DR value: DR12

Samplerate: 2822400 Hz / PCM Samplerate: 176400 Hz
Channels: 2
Bits per sample: 1
Bitrate: 5645 kbps
Codec: DSD64


Thanks to PS³SACD!
Uncompressed SACD ISO size > 2,55 GB
>