Tags
Language
Tags

Miles Davis Quintet - Miles Smiles (1967) [MFSL 2018] PS3 ISO + DSD64 + Hi-Res FLAC

Posted By: HDAtall
Miles Davis Quintet - Miles Smiles (1967) [MFSL 2018] PS3 ISO + DSD64 + Hi-Res FLAC

Miles Davis Quintet - Miles Smiles (1967) [MFSL 2018]
PS3 Rip | SACD ISO | DSD64 2.0 > 1-bit/2.8224 MHz | 41:33 minutes | Scans included | 1,17 GB
or DSD64 Stereo (from SACD-ISO to Tracks.dsf) > 1-bit/2.8224 MHz | Full Scans included | 1,02 GB
or FLAC 2.0 (carefully converted & encoded to tracks) 24bit/96 kHz | Full Scans included | 1016 MB
Mobile Fidelity Sound Lab # UDSACD 2201

Miles Smiles is an album by jazz musician Miles Davis, released in January 1967 on Columbia Records. It was recorded by Davis and his second quintet at Columbia 30th Street Studio in New York City on October 24 and October 25, 1966. It is the second of six albums recorded by Davis's second great quintet, which featured saxophonist Wayne Shorter, pianist Herbie Hancock, bassist Ron Carter, and drummer Tony Williams.

With their second album, Miles Smiles, the second Miles Davis Quintet really began to hit their stride, delving deeper into the more adventurous, exploratory side of their signature sound. This is clear as soon as "Orbits" comes crashing out the gate, but it's not just the fast, manic material that has an edge – slower, quieter numbers are mercurial, not just in how they shift melodies and chords, but how the voicing and phrasing never settles into a comfortable groove. This is music that demands attention, never taking predictable paths or easy choices. Its greatest triumph is that it masks this adventurousness within music that is warm and accessible – it just never acts that way. No matter how accessible this is, what's so utterly brilliant about it is that the group never brings it forth to the audience. They're playing for each other, pushing and prodding each other in an effort to discover new territory. As such, this crackles with vitality, sounding fresh decades after its release. And, like its predecessor, ESP, this freshness informs the writing as well, as the originals are memorable, yet open-ended and nervy, setting (and creating) standards for modern bop that were emulated well into the new century. Arguably, this quintet was never better than they are here, when all their strengths are in full bloom.

Tracklist:

01. Orbits
02. Circle
03. Footprints
04. Dolores
05. Freedom Jazz Dance
06. Ginger Bread Boy

Personnel
Miles Davis - trumpet
Wayne Shorter - tenor saxophone
Herbie Hancock - piano
Ron Carter - bass
Tony Williams - drums

Recorded on October 24-25, 1966 at Columbia 30th Street Studio, New York City.
Mastered from the Original Master Tapes by Rob LoVerde, assisted by Shawn R. Britton at Mobile Fidelity Sound Lab.

foobar2000 1.6.7 / Dynamic Range Meter 1.1.1

––––––––––––––––––––––––––––––––––––––––
Analyzed: MILES DAVIS QUINTET / Miles Smiles
––––––––––––––––––––––––––––––––––––––––

DR Peak RMS Duration Track
––––––––––––––––––––––––––––––––––––––––
DR12 -6.52 dB -21.38 dB 4:37 01-Orbits
DR13 -8.05 dB -25.03 dB 5:51 02-Circle
DR14 -7.08 dB -24.38 dB 9:47 03-Footprints
DR13 -6.38 dB -22.38 dB 6:20 04-Dolores
DR14 -6.74 dB -23.60 dB 7:13 05-Freedom Jazz Dance
DR12 -5.78 dB -20.45 dB 7:46 06-Ginger Bread Boy
––––––––––––––––––––––––––––––––––––––––

Number of tracks: 6
Official DR value: DR13

Samplerate: 2822400 Hz / PCM Samplerate: 176400 Hz
Channels: 2
Bits per sample: 1
Bitrate: 5645 kbps
Codec: DSD64


Thanks to PS³SACD!
Uncompressed SACD ISO size > 1,67 GB
>