Miles Tackett - The Fool Who Wonders (2014) [Official Digital Download 24-bit/96kHz]

Posted By: HDV
Miles Tackett - The Fool Who Wonders (2014) [Official Digital Download 24-bit/96kHz]

Miles Tackett - The Fool Who Wonders (2014)
FLAC (tracks) 24-bit/96 kHz | Time - 47:30 minutes | 955 MB
Studio Master, Official Digital Download | Artwork: Front cover

The solo album from Miles “Music Man” Tackett, "The Fool Who Wonders", is a guitar-centric, soulful collection of new vintage sounds. As founder/leader of the Breakestra, Tackett has been busy writing, producing, and performing the funk and soul-jazz sounds that have shaped the Los Angeles underground funk scene for over a decade.


On "The Fool Who Wonders", recorded on analog tape at New Tilt Studio in Los Angeles, Tackett’s master skills as a songwriter, guitarist, vocalist, producer, and engineer are at the forefront as he warmly weaves together soul, & jazz-bluesy psychedelia with the funky soul sounds he is known for.

“Just What I Need” is the first single featuring Tackett on vocals, guitar and keys. Fans of Tackett’s previous projects or even his weekly all-vinyl DJ sets at FUNKY SOLE will all find something unique in The Fool Who Wonders.

Tracklist:

01 - Just What I Need
02 - Everything
03 - Come Away
04 - Release Me
05 - The Fool Who Wonders
06 - Out In The Canyon
07 - Golden Child, Honey Child
08 - Everybody's Been Burned
09 - One More Time
10 - Paradise
11 - Shake Your Tambourine

Produced & Recorded by Miles Tackett at the New Tilt Highland Park.

Analyzed: Miles Tackett / The Fool Who Wonders
––––––––––––––––––––––––––––––––––––––––

DR Peak RMS Duration Track
––––––––––––––––––––––––––––––––––––––––
DR11 -11.88 dB -24.85 dB 3:42 01-Just What I Need
DR11 -11.66 dB -24.46 dB 4:02 02-Everything
DR10 -12.94 dB -25.01 dB 5:27 03-Come Away
DR11 -12.51 dB -25.31 dB 3:40 04-Release Me
DR12 -10.15 dB -25.56 dB 4:01 05-The Fool Who Wonders
DR11 -14.24 dB -27.23 dB 4:36 06-Out In The Canyon
DR11 -15.37 dB -28.64 dB 4:50 07-Golden Child, Honey Child
DR12 -14.84 dB -28.39 dB 4:00 08-Everybody's Been Burned
DR11 -15.21 dB -27.99 dB 2:50 09-One More Time
DR11 -15.59 dB -28.63 dB 6:27 10-Paradise
DR11 -15.15 dB -28.70 dB 3:56 11-Shake Your Tambourine
––––––––––––––––––––––––––––––––––––––––

Number of tracks: 11
Official DR value: DR11

Samplerate: 96000 Hz
Channels: 2
Bits per sample: 24
Bitrate: 2712 kbps
Codec: FLAC
================================================================================


Thanks to the Original customer!