Moby - Innocents (2013) [Official Digital Download 24bit/96kHz] RE-UP

Posted By: HDV
Moby - Innocents (2013) [Official Digital Download 24bit/96kHz] RE-UP

Moby - Innocents (2013)
FLAC (tracks) 24 bit/96 kHz | Time - 64:32 minutes | 1,38 GB
Studio Master, Official Digital Download | Artwork: Digital booklet

Innocents is the eleventh studio album by American electronica musician Moby. Moby recorded Innocents from between January 2012 and June 2013 in his apartment. The album was produced by Grammy-winner Mark 'Spike' Stent. The album features several guest performers and vocalists, including Cold Specks's Al Spx (who appears on two tracks), Wayne Coyne (The Flaming Lips), Mark Lanegan (Screaming Trees, Queens of the Stone Age), Damien Jurado, Skylar Grey and Inyang Bassey.

Innocents is in line with Wait for Me (2009) and Destroyed (2011), Moby's most intimate and isolated albums. Following a move from New York to Los Angeles, he recorded almost all the instrumentation by himself. He made a considerable change by seeking vocals from an extended cast of relatively known singers – including Mark Lanegan, the Flaming Lips' Wayne Coyne, Cold Specks, Skylar Grey, and Damien Jurado – rather than a handful of locals, and he had Mark "Spike" Stent mix it all. It's another downcast, occasionally grand-sounding set suited for solitary home listening. Not much moves the feet. "A Long Time" has an insistent, kind of dejected chug, while "Saints" sounds like Moby trying to recall how Massive Attack's "Unfinished Sympathy" goes. The emotional apex is "The Perfect Life," a neo-gospel number where Moby and Coyne are backed by a choir of ten voices. It would have provided a suitable end to the album, but instead, it's planted in the middle, surrounded by an ambient piano ballad and surprisingly understated showcase for Grey. Much of the album is rich with Moby's synthetic strings. This is the most liberal he's been with them – they're just about everywhere – but he thankfully restrains himself on "The Lonely Night," where Mark Lanegan's deep, weathered voice is relatively (rightfully) unornamented and dissipates amid soft drones after "Here come the lonely night…can't escape my mind." It helps make Innocents Moby's most powerful work in several years.

Tracklist:

01 - Everything That Rises
02 - A Case For Shame (with Cold Specks)
03 - Almost Home (with Damien Jurado)
04 - Going Wrong
05 - The Perfect Life (with Wayne Coyne)
06 - The Last Day (with Skylar Grey)
07 - Don't Love Me (with Inyang Bassey)
08 - A Long Time
09 - Saints
10 - Tell Me (with Cold Specks)
11 - The Lonely Night
12 - The Dogs

Analyzed: Moby / Innocents
––––––––––––––––––––––––––––––––––––––––

DR Peak RMS Duration Track
––––––––––––––––––––––––––––––––––––––––
DR7 -0.60 dB -11.19 dB 4:38 01-Everything That Rises
DR7 -0.60 dB -10.65 dB 6:05 02-A Case For Shame (with Cold Specks)
DR7 -0.60 dB -10.32 dB 6:01 03-Almost Home (with Damien Jurado)
DR9 -0.60 dB -12.80 dB 3:44 04-Going Wrong
DR7 -0.60 dB -9.48 dB 6:03 05-The Perfect Life (with Wayne Coyne)
DR7 -0.60 dB -10.19 dB 4:41 06-The Last Day (with Skylar Grey)
DR6 -0.60 dB -8.50 dB 4:21 07-Don't Love Me (with Inyang Bassey)
DR8 -0.60 dB -10.60 dB 4:32 08-A Long Time
DR7 -0.60 dB -10.62 dB 4:35 09-Saints
DR7 -0.60 dB -11.25 dB 5:34 10-Tell Me (with Cold Specks)
DR8 -0.60 dB -11.08 dB 4:53 11-The Lonely Night
DR8 -0.60 dB -12.21 dB 9:25 12-The Dogs
––––––––––––––––––––––––––––––––––––––––

Number of tracks: 12
Official DR value: DR7

Samplerate: 96000 Hz
Channels: 2
Bits per sample: 24
Bitrate: 2756 kbps
Codec: FLAC
================================================================================


Thanks to the Original customer!

Moby - Play (1999/2014)