Monty Alexander - Perception (1974/2014) [Official Digital Download 24/88]

Posted By: HDV
Monty Alexander - Perception (1974/2014) [Official Digital Download 24/88]

Monty Alexander - Perception (1974/2014)
FLAC (tracks) 24-bit/88,2 kHz | Time - 43:20 minutes | 862 MB
Studio Master, Official Digital Download | Artwork: Front cover

"Perception" is 1974's album by American (born in Jamaica) pianist / composer Monty Alexander, who started as a young prodigy and later on recorded many albums for the German MPS (Musik Produktion Schwarzwald) label in the 1970s and early 1980s.

Tracklist:

01 - Concerto d'Aranjuez
02 - Ben
03 - Battle Hymn of the Republic
04 - Carnival in Jamaica
05 - For All We Know
06 - Rude Old Man
07 - Shaft

Produced by MPS Records. Engineered by Paul Goodman.
Recorded on June 18 1973. Digitally Remastered.

Musicians:
Monty Alexander - piano
Eugene Wright - bass
Bobby Durham - drums

Analyzed: Monty Alexander / Perception
––––––––––––––––––––––––––––––––––––––––

DR Peak RMS Duration Track
––––––––––––––––––––––––––––––––––––––––
DR12 -2.36 dB -17.38 dB 7:18 01-Concerto d'Aranjuez
DR12 -3.78 dB -21.22 dB 6:46 02-Ben
DR10 -1.54 dB -15.72 dB 5:00 03-Battle Hymn of the Republic
DR10 -1.61 dB -13.56 dB 5:28 04-Carnival in Jamaica
DR9 -1.94 dB -14.81 dB 7:00 05-For All We Know
DR10 -2.09 dB -15.47 dB 3:29 06-Rude Old Man
DR10 -0.84 dB -14.29 dB 8:18 07-Shaft
––––––––––––––––––––––––––––––––––––––––

Number of tracks: 7
Official DR value: DR10

Samplerate: 88200 Hz
Channels: 2
Bits per sample: 24
Bitrate: 2757 kbps
Codec: FLAC
================================================================================


Thanks to the Original customer!

Some more of 'Monty Alexander' in Hi-Res