Tags
Language
Tags
February 2023
Su Mo Tu We Th Fr Sa
29 30 31 1 2 3 4
5 6 7 8 9 10 11
12 13 14 15 16 17 18
19 20 21 22 23 24 25
26 27 28 1 2 3 4

Muddy Waters - Hoochie Coochie Man: Live At The Rising Sun Celebrity Jazz Club (1977/2016) [Official Digital Download]

Posted By: HDV
Muddy Waters - Hoochie Coochie Man: Live At The Rising Sun Celebrity Jazz Club (1977/2016) [Official Digital Download]

Muddy Waters - Hoochie Coochie Man: Live At The Rising Sun Celebrity Jazz Club (1977/2016)
FLAC (tracks) 24-bit/96 kHz | Time - 60:32 minutes | 787 MB
Studio Master, Official Digital Download | Artwork: Front cover

Recorded in January of 1977 at Montreal’s legendary Rising Sun Celebrity Jazz Club, the record features some of Muddy’s greatest bandmates, including Luther “Guitar Junior” Johnson and “Steady Rollin’” Bob Margolin on guitar, Jerry Portnoy on harmonica, Pinetop Perkins on piano, along with Calvin Jones on bass and Willie Smith on drums. The band are terrific throughout which is why it is no surprise that they, like many others, went on to have outside recognition after playing with Muddy’s band. The standout track is an 11 minute version of the classic, “Kansas City,” in which Muddy shares vocals with Perkins.

Tracklist:

01 - Baby Please Don't Go
02 - Howling Wolf
03 - I Want You to Love Me
04 - Can't Get No Grindin'
05 - Hoochie Coochie Man
06 - Nine Below Zero
07 - The Blues Had a Baby (and They Named It Rock 'n' Roll)
08 - They Call It Stormy Monday
09 - Highway 41
10 - Kansas City

Analyzed: Muddy Waters / Hoochie Coochie Man: Live at The Rising Sun Celebrity Jazz Club (2016 Remastered)
––––––––––––––––––––––––––––––––––––––––

DR Peak RMS Duration Track
––––––––––––––––––––––––––––––––––––––––
DR8 -0.20 dB -9.59 dB 4:57 01-Baby Please Don't Go (Live)
DR9 -0.20 dB -11.70 dB 6:43 02-Howling Wolf (Live)
DR9 -0.20 dB -12.39 dB 4:48 03-I Want You to Love Me (Live)
DR9 -0.20 dB -9.93 dB 4:21 04-Can't Get No Grindin' (Live)
DR8 -0.20 dB -9.39 dB 2:52 05-Hoochie Coochie Man (Live)
DR8 -0.20 dB -10.47 dB 6:07 06-Nine Below Zero (Live)
DR8 -0.20 dB -9.16 dB 7:03 07-The Blues Had a Baby (and They Named It Rock 'n' Roll) (Live)
DR10 -0.20 dB -12.71 dB 6:23 08-They Call It Stormy Monday (Live)
DR8 -0.20 dB -9.87 dB 6:10 09-Highway 41 (Live)
DR8 -0.20 dB -9.77 dB 11:07 10-Kansas City (Live)
––––––––––––––––––––––––––––––––––––––––

Number of tracks: 10
Official DR value: DR8

Samplerate: 44100 Hz
Channels: 2
Bits per sample: 24
Bitrate: 1788 kbps
Codec: FLAC
================================================================================


Thanks to the Original customer!