Muse - Hullabaloo Soundtrack (2001) [Reissue 2002 > SACD only - Disc 2] MCH PS3 ISO + Hi-Res FLAC

Posted By: HDAtall
Muse - Hullabaloo Soundtrack (2001) [Reissue 2002 > SACD only - Disc 2] MCH PS3 ISO + Hi-Res FLAC

Muse - Hullabaloo Soundtrack (2001) [Reissue 2002 - SACD only > Disc 2] {2.0 & 5.1}
PS3 Rip | SACD ISO | DST64 2.0 & 5.1 > 1-bit/2.8224 MHz | 51:04 minutes | Scans included | 3,65 GB
or FLAC 2.0 Stereo (converted with foobar2000 to tracks) 24bit/48 kHz | Scans included | 699 MB

Critics say that Radiohead is best, but Muse is equally passionate and mad when it comes to delivering a raw rock sound. The Hullabaloo Soundtrack arrived after only two albums – 1999's Showbiz and 2001's indie smash Origin of Symmetry – and it's an ambitious move for the band. Hullabaloo captures Muse live in concert at Le Zenith in Paris in October 2001 on disc two. Frontman Matthew Bellamy howls and halloos through classics like "Muscle Museum" and "Citizen Erased." His bandmates provide a tight, grunge-inspired rhythm section; however, Bellamy's vocal anguish is painfully romantic – think Jeff Buckley and more conservative Thom Yorke. Theatrics do take over Muse's overall live show. One cannot ignore the sinister string arrangements of "Space Dementia," but newer cuts like "Dead Star" and "In Your World" showcase the band's original rock intent. No vocal mimicry, no electronic distortion. Disc one offers a selection of B-sides from the band's 1999 and 2001 sessions. Fans should be more than delighted to have each single compiled onto one album. Standouts: "Hyper Chondriac Music" and "Map of Your Head." Muse eagerly defines, in an artistic sense, what music means to them. For a massive follower of the band, the Hullabaloo Soundtrack is a decent look back. For new fans, consider the album a treat.

Tracklist:

01. Deadstar
02. Micro Cuts
03. Citizen Erased
04. Showbiz
05. Megalomania
06. Dark Shines
07. Screenager
08. Space Dementia
09. In Your World
10. Muscle Museum
11. Agitated

Disc 1 in this package is CD-DA.

foobar2000 1.4 / Dynamic Range Meter 1.1.1

––––––––––––––––––––––––––––––––––––––––
Analyzed: MUSE / HULLABALLOO LIVE SOUNDTRACK
––––––––––––––––––––––––––––––––––––––––

DR Peak RMS Duration Track
––––––––––––––––––––––––––––––––––––––––
DR11 -5.77 dB -20.71 dB 4:09 01-Deadstar
DR11 -5.99 dB -21.48 dB 3:31 02-Micro Cuts
DR11 -5.82 dB -21.10 dB 7:21 03-Citizen Erased
DR10 -5.75 dB -20.16 dB 5:04 04-Showbiz
DR10 -5.61 dB -20.15 dB 4:37 05-Megalomania
DR11 -5.85 dB -21.51 dB 4:37 06-Dark Shines
DR11 -5.81 dB -21.41 dB 4:23 07-Screenager
DR11 -5.89 dB -20.30 dB 5:33 08-Space Dementia
DR11 -5.41 dB -19.96 dB 3:11 09-In Your World
DR10 -5.85 dB -20.64 dB 4:29 10-Muscle Museum
DR10 -5.60 dB -19.88 dB 4:09 11-Agitated
––––––––––––––––––––––––––––––––––––––––

Number of tracks: 11
Official DR value: DR11

Samplerate: 2822400 Hz / PCM Samplerate: 88200 Hz
Channels: 6
Bits per sample: 24
Bitrate: 16934 kbps
Codec: DST64
================================================================================

––––––––––––––––––––––––––––––––––––––––
Analyzed: MUSE / HULLABALLOO LIVE SOUNDTRACK
––––––––––––––––––––––––––––––––––––––––

DR Peak RMS Duration Track
––––––––––––––––––––––––––––––––––––––––
DR8 -5.45 dB -14.51 dB 4:09 01-Deadstar
DR9 -5.89 dB -16.27 dB 3:31 02-Micro Cuts
DR8 -5.55 dB -15.06 dB 7:21 03-Citizen Erased
DR8 -5.34 dB -15.07 dB 5:04 04-Showbiz
DR7 -5.01 dB -14.92 dB 4:37 05-Megalomania
DR8 -5.83 dB -15.72 dB 4:37 06-Dark Shines
DR8 -5.47 dB -16.07 dB 4:23 07-Screenager
DR8 -4.76 dB -14.59 dB 5:33 08-Space Dementia
DR8 -5.51 dB -14.51 dB 3:11 09-In Your World
DR7 -5.57 dB -15.13 dB 4:29 10-Muscle Museum
DR7 -5.63 dB -14.71 dB 4:09 11-Agitated
––––––––––––––––––––––––––––––––––––––––

Number of tracks: 11
Official DR value: DR8

Samplerate: 2822400 Hz / PCM Samplerate: 88200 Hz
Channels: 2
Bits per sample: 24
Bitrate: 5645 kbps
Codec: DST64


Thanks to PS³SACD!
Uncompressed SACD ISO size > 3,46 GB
>