My Politic - 12 Kinds Of Lost (2017) [Official Digital Download 24-bit/96kHz]

Posted By: HDV
My Politic - 12 Kinds Of Lost (2017) [Official Digital Download 24-bit/96kHz]

My Politic - 12 Kinds Of Lost (2017)
FLAC (tracks) 24-bit/96 kHz | Time - 50:27 minutes | 1008 MGB
Studio Master, Official Digital Download | Artwork: Front cover

My Politic is making their first ever studio album "12 Kinds of Lost" at the Sound Emporium in Nashville TN. With a mix of Folk, americana, bluegrass, country, blues and roots music it promises to be their most eclectic effort to date. Appalachian Americana band out of Missouri debuts strongly on their first studio album. Every song hits home in a different way, and they manage to avoid the bro-country laundry list tropes that seem to plague even the most traditional artists to grace the radio waves.


12 Kinds of Lost consists of storytelling not seen very often in Country music. They join Country and Folk music to make a work of art that everyone will want to hear.

While the majority of the songs are slow ballads, there is still a sprinkling of uptempo songs throughout the album. Every song tells a story. Their songs are deep, dark, and full hard truths on reality. They make sure to mention just about every hard topic imaginable. “Bored Young Ghost” is a song about being or feeling stuck and empty. “When I die here, my ghost will be as bored as I am.” This song will speak to a lot of people because it speaks the truth about how many people feel at some point in their lives. “Only Human” describes the feeling of being depressed and growing apart from those you love. “I wonder if I’ll ever get a chance to make it right.” So many people these days struggle with depression that I believe fans will find that they can relate to this song for many reasons. “Devil’s Playground” again speaks of the world we live in today. We live in a time of religious growth, that is growing parallel with society’s efforts to deal with rises in drug use and abuse. The songs were beautifully co-written by the members of the band. My Politics is made up of Kaston Guffey, Nick Pankey, Wilson Conroy, Will Cafaro, Jen Starsinic, and John Wood. Guffey and Pankey met in Missouri at a young age and became My Politics in 2006. They moved to New England for a while before they found their home in Nashville. Their house has become a staple of sorts for other musicians passing by, and is coined the Mad Valley Lodge. This is not just a band, it seems to be that they have become a family. They tell stories that are hard to hear, but true to the core of people around the world. They don’t hold back knowing that there are many people out there that can relate in some shape or form.

12 Kinds of Lost captures the dark truth of the world we live in. People from all walks of life will hear these songs and find that they can relate in one way or another. It was so good I found myself wanting to continue to listen over and over. The songs speak for themselves. I encourage everyone to listen and enjoy the fantastic tracks found on 12 Kinds of Lost.

Tracklist:

01 - Bored Young Ghost
02 - Loneliness
03 - Only Human
04 - Down in Hell
05 - The Tunnel
06 - I Don't Wanna Run
07 - Devil's Playground
08 - Ain't Outta Line
09 - Great Divide
10 - News Alone
11 - My Mother Missouri
12 - 12 Kinds of Lost

Recorded at The Sound Emporium A Room, Nashville, TN.
Engineered & Mixed by Adam Taylor.
Mastered by Chris Frasco.

Musicians:
Kaston Guffey - Lead Vocals, Guitar
Nick Pankey - Vocals, Guitar
Wilson Conroy - Dobro, mandolin, vocals
Jen Starsinic - Fiddle
Jeff Adamczyk - B3 Organ
Will Cafaro - Upright & Electric Bass
John Wood - Drums

Analyzed: My Politic / 12 Kinds of Lost
––––––––––––––––––––––––––––––––––––––––

DR Peak RMS Duration Track
––––––––––––––––––––––––––––––––––––––––
DR9 -0.11 dB -10.41 dB 4:02 01-Bored Young Ghost
DR8 -0.11 dB -10.84 dB 3:34 02-Loneliness
DR11 -0.11 dB -14.00 dB 4:02 03-Only Human
DR8 -0.11 dB -10.57 dB 5:01 04-Down in Hell
DR8 -0.11 dB -11.14 dB 4:28 05-The Tunnel
DR9 -0.11 dB -11.13 dB 4:25 06-I Don't Wanna Run
DR9 -0.11 dB -10.44 dB 3:45 07-Devil's Playground
DR9 -0.39 dB -11.52 dB 4:37 08-Ain't Outta Line
DR8 -0.11 dB -9.87 dB 3:24 09-Great Divide
DR10 -0.11 dB -13.28 dB 4:31 10-News Alone
DR10 -0.11 dB -14.50 dB 3:45 11-My Mother Missouri
DR8 -0.11 dB -10.16 dB 4:54 12-12 Kinds of Lost
––––––––––––––––––––––––––––––––––––––––

Number of tracks: 12
Official DR value: DR9

Samplerate: 96000 Hz
Channels: 2
Bits per sample: 24
Bitrate: 2739 kbps
Codec: FLAC
================================================================================


Thanks to the Original customer!