Nancy Sinatra - Super Audio Best (2011) PS3 ISO + Hi-Res FLAC

Posted By: HDAtall
Nancy Sinatra - Super Audio Best (2011) PS3 ISO + Hi-Res FLAC

Nancy Sinatra - Super Audio Best (2011)
PS3 Rip | SACD ISO | DST64 2.0 > 1-bit/2.8224 MHz | 59:04 minutes | Scans included | 1012 MB
or FLAC (converted with foobar2000 to tracks) 24bit/44,1 kHz | Full Scans included | 712 MB
Intermusic S.A. / Top Music International Ltd. # TM-SACD7017.2

Nancy Sandra Sinatra is an American singer and actress. She is the elder daughter of Frank Sinatra and Nancy (née Barbato) Sinatra, and is widely known for her 1966 signature hit "These Boots Are Made for Walkin'". Other defining recordings include "Sugar Town", the 1967 number one "Somethin' Stupid" (a duet with her father), the title song from the James Bond film "You Only Live Twice", several collaborations with Lee Hazlewood such as "Jackson", "Summer Wine" and her cover of Cher's "Bang Bang (My Baby Shot Me Down)".

Growing up as the child of one of the greatest icons in American music can't be easy, but Nancy Sinatra managed to create a sound and style for herself fully separate from that of her (very) famous father, and her sexy but strong-willed persona has endured with nearly the same strength as the image of the Chairman of the Board.

Nancy Sinatra began her career as a singer and actress in November 1957 with an appearance on her father's ABC-TV variety series, but initially achieved success only in Europe and Japan. In early 1966 she had a transatlantic number-one hit with "These Boots Are Made for Walkin'". She appeared on TV in high boots, and with colorfully dressed go-go dancers, creating a popular and enduring image of the Swinging Sixties. The song was written by Lee Hazlewood, who wrote and produced most of her hits and sang with her on several duets, including "Some Velvet Morning". In 1966 and 1967, Sinatra charted with 13 titles, all of which featured Billy Strange as arranger and conductor.

Tracklist:

01. These Boots Are Made For Walking
02. Summer Wine
03. Things
04. Did You Ever
05. Friday's Child
06. You Only Live Twice
07. Highway Song
08. Elusive Dreams
09. Storybook Children
10. Sugar Town
11. Something Stupid
12. Jackson
13. Sand
14. Sundown, Sundown
15. Some Velvet Morning
16. I've Been Down So Long
17. Tony Rome
18. How Does That Grab You, Darlin'
19. Lady Bird
20. So Long Babe

foobar2000 1.4.6 / Dynamic Range Meter 1.1.1

––––––––––––––––––––––––––––––––––––––––
Analyzed: Nancy Sinatra / Super Audio Best
––––––––––––––––––––––––––––––––––––––––

DR Peak RMS Duration Track
––––––––––––––––––––––––––––––––––––––––
DR14 -5.64 dB -22.42 dB 2:39 01-These Boots Are Made For Walking
DR14 -5.84 dB -21.97 dB 4:12 02-Summerwine
DR12 -5.53 dB -20.90 dB 2:43 03-Things
DR13 -7.38 dB -22.44 dB 2:55 04-Did You Ever
DR16 -6.32 dB -24.37 dB 2:25 05-Friday's Child
DR10 -7.87 dB -20.66 dB 2:55 06-You Only Live Twice
DR14 -5.69 dB -21.61 dB 3:26 07-Highway Song
DR12 -5.56 dB -20.61 dB 3:12 08-Elusive Dreams
DR12 -5.94 dB -20.91 dB 3:08 09-Storybook Children
DR14 -5.75 dB -22.78 dB 2:21 10-Sugar Town
DR12 -6.16 dB -21.21 dB 2:38 11-Something Stupid
DR13 -7.00 dB -22.00 dB 2:46 12-Jackson
DR14 -6.09 dB -25.10 dB 3:43 13-Sand
DR12 -6.02 dB -19.78 dB 2:36 14-Sundown, Sundown
DR12 -7.03 dB -21.28 dB 3:34 15-Some Velvet Morning
DR14 -7.26 dB -22.60 dB 2:47 16-I've Been Down So Long
DR13 -6.86 dB -21.88 dB 2:24 17-Tony Rome
DR14 -5.97 dB -22.77 dB 2:30 18-How Does That Grab You, Darlin'
DR12 -6.64 dB -20.73 dB 3:02 19-Lady Bird
DR12 -6.55 dB -21.20 dB 3:06 20-So Long Babe
––––––––––––––––––––––––––––––––––––––––

Number of tracks: 20
Official DR value: DR13

Samplerate: 2822400 Hz / PCM Samplerate: 88200 Hz
Channels: 2
Bits per sample: 24
Bitrate: 5645 kbps
Codec: DST64


Thanks to PS³SACD!
Uncompressed SACD ISO size > 955 MB
>