Nathan Milstein - Dvorak: Violin Concerto & My Home Overture (1958 & 1965/2012) [DSD128 + Hi-Res FLAC]

Posted By: HDV
Nathan Milstein - Dvorak: Violin Concerto & My Home Overture (1958 & 1965/2012) [DSD128 + Hi-Res FLAC]

Nathan Milstein, Pittsburgh Symphony Orchestra, William Steinberg - Dvořák: Violin Concerto (1958)
London Symphony Orchestra, István Kertész - Antonín Dvořák: "My Home" Overture (1965/2012)

DSD128 (.dsf) 1 bit/5,6 MHz | Time - 38:21 minutes | 2,05 GB
FLAC (tracks) 24-bit/96 kHz | Time - 38:21 minutes | 810 MB
Studio Master, Official Digital Download | Artwork: Digital booklet

The Pittsburgh Symphony Orchestra collaboration with William Steinberg exemplifies what Milstein could do with material often considered less than first rate. Milstein plays the concerto beautifully, with his typically aristocratic poise and a lightness of rhythm and purity of intonation that makes the music seem to float across the bar lines. The István Kertész inscription of Dvořák’s “My Home” fills out his survey of the complete symphony cycle for Decca.

Tracklist:

01 - Dvořák: Violin Concerto in A minor, Op. 53 - Allegro ma non troppo
02 - Dvořák: Violin Concerto in A minor, Op. 53 - Adagio ma non troppo
03 - Dvořák: Violin Concerto in A minor, Op. 53 - Allegro giocoso ma non troppo
04 - Dvořák: "My Home" Overture

Violin Concerto - Transferred from Capital 2-track tape
"My Home" Overture - Transferred from a London 4-track tape

Violin Concerto:
Nathan Milstein - violin
Pittsburgh Symphony Orchestra, Conducted by William Steinberg

"My Home" Overture:
London Symphony Orchestra, Conducted by István Kertész

Analyzed: Nathan Milstein, Pittsburgh Symphony Orchestra, William Steinberg / Dvorak: Violin Concerto in A minor, Op. 53
––––––––––––––––––––––––––––––––––––––––

DR Peak RMS Duration Track
––––––––––––––––––––––––––––––––––––––––
DR12 -6.21 dB -23.14 dB 9:08 01-Allegro ma non troppo
DR13 -6.25 dB -24.85 dB 10:35 02-Adagio ma non troppo
DR12 -6.06 dB -23.38 dB 9:16 03-Finale: Allegro giocoso ma non troppo
––––––––––––––––––––––––––––––––––––––––

Number of tracks: 3
Official DR value: DR13

Samplerate: 5644800 Hz / PCM Samplerate: 176400 Hz
Channels: 2
Bits per sample: 1
Bitrate: 11290 kbps
Codec: DSD128
================================================================================

––––––––––––––––––––––––––––––––––––––––
Statistics for: 04-Overture "My Home"
Number of samples: 3223814088
Duration: 9:31
––––––––––––––––––––––––––––––––––––––––

Left Right

Peak Value: -6.99 dB –- -6.77 dB
Avg RMS: -23.05 dB –- -22.29 dB
DR channel: 10.74 dB –- 10.77 dB
––––––––––––––––––––––––––––––––––––––––

Official DR Value: DR11

Samplerate: 5644800 Hz / PCM Samplerate: 176400 Hz
Channels: 2
Bits per sample: 1
Bitrate: 11290 kbps
Codec: DSD128
================================================================================


Thanks to the Original customer!