Neil Diamond - All-Time Greatest Hits (2014/2016) [Official Digital Download 24-bit/192 kHz]

Posted By: HDV
Neil Diamond - All-Time Greatest Hits (2014/2016) [Official Digital Download 24-bit/192 kHz]

Neil Diamond - All-Time Greatest Hits (2014/2016)
FLAC (tracks) 24-bit/192 kHz | Time - 78:52 minutes | 3,77 GB
FLAC (tracks) 24-bit/96 kHz | Time - 78:52 minutes | 1,69 GB
Studio Master, Official Digital Download | Artwork: Front cover

The original studio recordings from America's quintessential singer-songwriter. 23 of Neil Diamond's best loved hits. Includes the rare solo version of "You Don't Bring Me Flowers".

All-Time Greatest Hits was released on Capitol Records, a label Neil Diamond never recorded for, but Universal – who owned the recordings Diamond made for both Uni and MCA – selected this as the imprint for 2014's All-Time Greatest Hits, a generous collection of 23 hits from the '60s and '70s. A consistent bugaboo with Diamond compilations has been licensing, but this one does a very nice job of sampling from all of Neil's major labels, including Bang, Uni, MCA, and Columbia. The late-'70s hits – "Forever in Blue Jeans," "Beautiful Noise," "America" – are scattered throughout the compilation; the Uni/MCA sides ("Cracklin' Rosie," "Sweet Caroline," "Holly Holy," "Shilo," "Play Me") are the anchor of the comp, and the Bang singles are grouped together toward the end. True, the collection might've been better served if it was sequenced chronologically, but this has the vast majority of the big hits on a single disc, and that's been hard to find in Diamond's catalog.

Tracklist:

01 - Cracklin' Rosie
02 - Forever In Blue Jeans
03 - Song Sung Blue
04 - Sweet Caroline
05 - Holly Holy
06 - Red Red Wine
07 - Hello Again
08 - Beautiful Noise
09 - America
10 - September Morn
11 - Love On The Rocks
12 - Shilo
13 - You Don't Bring Me Flowers
14 - Morningside
15 - Soolaimon
16 - Play Me
17 - Kentucky Woman
18 - Girl, You'll Be A Woman Soon
19 - Solitary Man
20 - I'm A Believer
21 - Brother Love's Traveling Salvation Show
22 - Cherry, Cherry
23 - I Am…I Said

Analyzed: Neil Diamond / All-Time Greatest Hits
––––––––––––––––––––––––––––––––––––––––

DR Peak RMS Duration Track
––––––––––––––––––––––––––––––––––––––––
DR8 0.00 dB -9.22 dB 2:58 01-Cracklin' Rosie
DR7 0.00 dB -9.76 dB 3:25 02-Forever In Blue Jeans
DR8 0.00 dB -10.18 dB 3:06 03-Song Sung Blue
DR7 0.00 dB -10.20 dB 3:20 04-Sweet Caroline
DR6 0.00 dB -9.11 dB 4:40 05-Holly Holy
DR7 0.00 dB -9.27 dB 2:39 06-Red Red Wine
DR8 0.00 dB -11.85 dB 4:01 07-Hello Again
DR6 0.00 dB -8.36 dB 3:11 08-Beautiful Noise
DR6 0.00 dB -8.36 dB 4:18 09-America
DR8 0.00 dB -10.71 dB 3:53 10-September Morn
DR7 0.00 dB -11.08 dB 3:36 11-Love On The Rocks
DR6 0.00 dB -8.32 dB 3:23 12-Shilo
DR8 0.00 dB -13.24 dB 3:10 13-You Don't Bring Me Flowers
DR9 -0.18 dB -12.47 dB 4:21 14-Morningside
DR6 0.00 dB -9.06 dB 4:31 15-Soolaimon
DR8 -0.19 dB -10.86 dB 3:51 16-Play Me
DR7 0.00 dB -8.83 dB 2:26 17-Kentucky Woman
DR7 -0.04 dB -8.93 dB 3:00 18-Girl, You'll Be A Woman Soon
DR7 0.00 dB -8.36 dB 2:33 19-Solitary Man
DR8 0.00 dB -9.30 dB 2:42 20-I'm A Believer
DR6 0.00 dB -8.99 dB 3:29 21-Brother Love's Traveling Salvation Show
DR7 0.00 dB -8.71 dB 2:42 22-Cherry, Cherry
DR7 -0.09 dB -10.05 dB 3:36 23-I Am…I Said
––––––––––––––––––––––––––––––––––––––––

Number of tracks: 23
Official DR value: DR7

Samplerate: 192000 Hz
Channels: 2
Bits per sample: 24
Bitrate: 6061 kbps
Codec: FLAC
================================================================================


Thanks to the Original customer!