New York Dolls - Too Much Too Soon (1974/2014) [Official Digital Download 24bit/192kHz]

Posted By: HDV
New York Dolls - Too Much Too Soon (1974/2014) [Official Digital Download 24bit/192kHz]

New York Dolls - Too Much Too Soon (1974/2014)
FLAC (tracks) 24 bit/192 kHz | Time - 37:21 minutes | 1,6 GB
Studio Master, Official Digital Download | Artwork: Front cover

The New York Dolls released Too Much Too Soon on May 10, 1974. Produced by Shadow Morton, it was recorded at A&R Studios in New York City and was mastered at Sterling Sound and Masterdisk. In addition to original material, the group also recorded several cover songs to fill out the album. Too Much Too Soon was well receied by music critics and the album followed the New York Dolls' first in becoming a cult hit.

After the clatter of their first album failed to bring them a wide audience, the New York Dolls hired producer Shadow Morton to work on the follow-up, Too Much Too Soon. The differences are apparent right from the start of the ferocious opener, "Babylon." Not only are the guitars cleaner, but the mix is dominated by waves of studio sound effects and female backing vocals. Ironically, instead of making the Dolls sound safer, all the added frills emphasize their gleeful sleaziness and reckless sound. The Dolls sound on the verge of falling apart throughout the album, as Johnny Thunders and Syl Sylvain relentlessly trade buzz-saw riffs while David Johansen sings, shouts, and sashays on top of the racket. Band originals – including the bluesy raver "It's Too Late," the noisy girl-group pop of "Puss N' Boots," and the Thunders showcase "Chatterbox" – are rounded out by obscure R&B and rock & roll covers tailor-made for the group. Johansen vamps throughout Leiber & Stoller's "Bad Detective," Archie Bell's "(There's Gonna Be A) Showdown," the Cadets "Stranded in the Jungle," and Sonny Boy Williamson's "Don't Start Me Talkin'," yet it's with grit and affection – he really means it, man! The whole record collapses with the scathing "Human Being," on which a bunch of cross-dressing misfits defiantly declare that it's OK that they want too many things, 'cause they're human beings, just like you and me. Three years later, the Sex Pistols failed to come up with anything as musically visceral and dangerous. Perhaps that's why the Dolls never found their audience in the early '70s: Not only were they punk rock before punk rock was cool, but they remained weirder and more idiosyncratic than any of the bands that followed. And they rocked harder, too.

Tracklist:

01 - Babylon
02 - Stranded in the Jungle
03 - Who Are the Mystery Girls ?
04 - (There's Gonna Be A) Showdown
05 - It's Too Late
06 - Puss 'n' Boots
07 - Chatterbox
08 - Bad Detective
09 - Don't Start Me Talking
10 - Human Being

Analyzed: New York Dolls / Too Much Too Soon
––––––––––––––––––––––––––––––––––––––––

DR Peak RMS Duration Track
––––––––––––––––––––––––––––––––––––––––
DR10 -0.35 dB -12.64 dB 3:34 01-Babylon
DR8 0.00 dB -10.74 dB 3:51 02-Stranded in the Jungle
DR9 -0.44 dB -11.27 dB 3:11 03-Who Are the Mystery Girls ?
DR10 -0.45 dB -12.44 dB 3:41 04-(There's Gonna Be A) Showdown
DR10 -0.34 dB -12.84 dB 4:42 05-It's Too Late
DR8 -1.02 dB -10.27 dB 3:06 06-Puss 'n' Boots
DR8 -0.89 dB -10.67 dB 2:30 07-Chatterbox
DR10 -0.84 dB -12.23 dB 3:42 08-Bad Detective
DR10 -1.00 dB -12.10 dB 3:16 09-Don't Start Me Talking
DR10 -0.87 dB -11.98 dB 5:46 10-Human Being
––––––––––––––––––––––––––––––––––––––––

Number of tracks: 10
Official DR value: DR9

Samplerate: 192000 Hz
Channels: 2
Bits per sample: 24
Bitrate: 5725 kbps
Codec: FLAC
================================================================================


Thanks to the Original customer!

New York Dolls related

.