Subcategories

New York Trio and Ken Peplowski - Stardust (2009) [Japan 2015] SACD ISO + Hi-Res FLAC

Posted By: HDAtall
New York Trio and Ken Peplowski - Stardust (2009) [Japan 2015] SACD ISO + Hi-Res FLAC

New York Trio & Ken Peplowski - Stardust (2009)
SACD Rip | SACD ISO | DSD64 2.0 > 1-bit/2.8224 MHz | 66:05 minutes | Front/Rear Covers | 2,1 GB
or FLAC(converted with foobar2000 to tracks) 24bit/88,2 kHz | Front/Rear Covers | 1,39 GB

A wonderful gift for jazz fans has arrived from Venus Records! Nobody argues that Bill Charlap is one of the most preeminent jazz pianists of his generation. His encyclopedic knowledge of the American Songbook is second to none, and his beautiful touch, amazing skills and imagination make it a pleasure to listen to him at all times. Ken Peplowski, on the other hand, is without a doubt one of the best clarinet and tenor sax players in the swing tradition. Each of them had recorded a number of albums for Venus Records of Japan separately–Charlap with his great New York Trio (with Jay Leonhart and Bill Stewart) and Peplowski with his own quartet and the Eddie Higgins Quintet. Now, wouldn't it be nice to put them together in a studio and make an album? Yes, it would, and they actually did it! They are a match made in heaven, and you can hear from the first note of the first song that they are inspired. Peplowski's supple, rich, and lyrical clarinet and tenor sax playing is simply beautiful, and Charlap's quietly intense solos are awe-inspiring. Leonhart and Stewart are also given ample room to stretch out and impress, as many of the tunes go over seven minutes. An instant classic and great for fans of straight ahead jazz!

Tracklist:

01. In The Middle Of A Kiss
02. Body And Soul
03. Serenade To Sweden
04. No Regrets
05. My Funny Valentine
06. So In Love
07. Stardust
08. Summertime
09. Stardust Reprise

Produced, Mixed & Mastered by Tetsuo Hara. Engineered by Katherine Miller.
Recorded at Avatar Studio in New York on June 19-20, 2008.
Venus Hyper Magnum Sound Direct Mix. VENUS Japan # VHGD-58.

Personnel
Ken Peplowski - tenor sax & clarinet
Bill Charlap - piano
Jay Leonhart - bass
Bill Stewart - drums

foobar2000 1.3.16 / Dynamic Range Meter 1.1.1

––––––––––––––––––––––––––––––––––––––––
Analyzed: New York Trio & Ken Peplowski / STARDUST
––––––––––––––––––––––––––––––––––––––––

DR Peak RMS Duration Track
––––––––––––––––––––––––––––––––––––––––
DR8 -4.75 dB -15.08 dB 9:51 01-In The Middle Of A Kiss
DR9 -5.27 dB -16.90 dB 8:21 02-Body And Soul
DR8 -5.17 dB -14.96 dB 8:23 03-Serenade To Sweden
DR9 -4.69 dB -15.65 dB 7:26 04-No Regrets
DR7 -5.32 dB -15.01 dB 5:03 05-My Funny Valentine
DR8 -5.20 dB -15.86 dB 10:16 06-So In Love
DR9 -5.07 dB -16.62 dB 6:38 07-Stardust
DR8 -4.66 dB -15.25 dB 7:55 08-Summertime
DR7 -5.54 dB -15.41 dB 2:11 09-Stardust Reprise
––––––––––––––––––––––––––––––––––––––––

Number of tracks: 9
Official DR value: DR8

Samplerate: 2822400 Hz / PCM Samplerate: 88200 Hz
Channels: 2
Bits per sample: 1
Bitrate: 5645 kbps
Codec: DSD64


Thanks to jazzyman!
Uncompressed SACD ISO size > 2,64 GB
>