Subcategories

New York Trio - Blues In The Night (2001) [Japan 2014] SACD ISO + Hi-Res FLAC

Posted By: HDAtall
New York Trio - Blues In The Night (2001) [Japan 2014] SACD ISO + Hi-Res FLAC

New York Trio - Blues In The Night (2001) [Japan 2014]
SACD Rip | SACD ISO | DSD64 2.0 > 1-bit/2.8224 MHz | 52:39 minutes | Front/Rear Covers | 1,72 GB
or FLAC(converted with foobar2000 to tracks) 24bit/88,2 kHz | Front/Rear Covers | 1,12 GB

After Bill Charlap was "discovered" by the Japanese independent Venus Records with his wonderful debut album for the label 'S Wonderful, he signed with Blue Note. Because of the contract terms, Charlap's name can no longer apper prominently on albums he records for Venus. Hence the anonymous moniker "New York Trio". But make no mistake. This is Bill Charlap's trio. And what a trio! Veteran Jay Leonhart's bass sounds deep, lyrical and authoritative, and cutting-edge drummer Bill Stewart's surprisingly traditional drumming brings a unique tension to this group. This unusual trio has recorded six albums for Venus Records at the pace of one each year, and this is their first of the celebrated series. One of the best interpreters of the Great American Songbook, Charlap dazzles us with his beautiful touch and tone, faithful rendering of original melodies and subtle addition of modern sensibilities. Selections are mostly medium to slow tempo ballads. As the title suggests, this is clearly music for the night.

In the dawn of the 21st century, pianist Bill Charlap took the jazz world by storm with a series of rewarding albums for labels both in the U.S. and abroad. On Blues in the Night, he leads his New York Trio in a recording made for the Japanese label Venus, with veteran bassist Jay Leonhart and fellow young gun Bill Stewart joining him. Right away Charlap signals that he can take an old chestnut into a new direction. His stretched-out, blues-drenched "Blues in the Night" makes effective use of space and showcases his sidemen as well. Leonhart's buoyant bassline brings to mind the late Milt Hinton in the brisk rendition of "I Could Have Danced All Night." Charlap's intense workout of "Blue Skies" is a virtual jazz history lesson, showing the influence of a number of legendary pianists, while achieving a sound distinctly his own. His loping, jaunty approach to "My Funny Valentine" is another winner; equally playful is the snappy waltz treatment of "Tenderly," accented by Stewart's brushwork. One of the most promising pianists of his generation, this Charlap album is highly recommended.

Tracklist:

01. Blues In The Night
02. I Could Have Danced All Night
03. Blue Skies
04. You Better Go Now
05. My Funny Valentine
06. Tenderly
07. Embraceable You
08. Don't Explain

Produced, Mixed & Mastered by Tetsuo Hara. Engineered by Katherine Miller.
Recorded at "The Studio" in New York on June 7 and 8, 2001.

Personnel
Bill Charlap - piano
Jay Leonhart - bass
Bill Stewart - drums

foobar2000 1.3.16 / Dynamic Range Meter 1.1.1

––––––––––––––––––––––––––––––––––––––––
Analyzed: New York Trio / BLUES IN THE NIGHT
––––––––––––––––––––––––––––––––––––––––

DR Peak RMS Duration Track
––––––––––––––––––––––––––––––––––––––––
DR7 -4.93 dB -15.44 dB 8:25 01-Blues In The Night
DR6 -5.09 dB -13.22 dB 6:38 02-I Could Have Danced All Night
DR7 -4.57 dB -13.85 dB 5:00 03-Blue Skies
DR7 -6.11 dB -15.22 dB 7:26 04-You Better Go Now
DR7 -5.52 dB -14.29 dB 6:11 05-My Funny Valentine
DR6 -5.74 dB -13.74 dB 5:13 06-Tenderly
DR7 -4.74 dB -13.39 dB 7:45 07-Embraceable You
DR6 -6.06 dB -14.31 dB 6:01 08-Don't Explain
––––––––––––––––––––––––––––––––––––––––

Number of tracks: 8
Official DR value: DR7

Samplerate: 2822400 Hz / PCM Samplerate: 88200 Hz
Channels: 2
Bits per sample: 1
Bitrate: 5645 kbps
Codec: DSD64


Thanks to jazzyman!
Uncompressed SACD ISO size > 2,12 GB
>