Subcategories

New York Trio - Stairway To The Stars (2005) [Japan 2015] SACD ISO + Hi-Res FLAC

Posted By: HDAtall
New York Trio - Stairway To The Stars (2005) [Japan 2015] SACD ISO + Hi-Res FLAC

New York Trio - Stairway To The Stars (2005) [Japan 2015]
SACD Rip | SACD ISO | DSD64 2.0 > 1-bit/2.8224 MHz | 57:48 minutes | Front/Rear Covers | 1,76 GB
or FLAC(converted with foobar2000 to tracks) 24bit/88,2 kHz | Front/Rear Covers | 1,16 GB

Consisting of Bill Charlap, Jay Leonhart and Bill Stewart, the New York Trio is a studio-only group that specializes in classic standards performed in a straightforward post-bop style. On this release, the trio focuses on selections from the Great American Songbook.

Bill Charlap is a member of the Phil Woods Quintet and has performed with Tony Bennett, Benny Carter, Gerry Mulligan and others. He's also recorded a handful of acclaimed albums for Blue Note as a bandleader.
Bassist Jay Leonhart has been a headliner since 1983, while also perofrming as a vocalist and songwriter. Leonhart has played with Marian McPartland, Louie Bellson, Lee Konitz and others.
Drummer Bill Stewart has played gigs with many musicians including John Scofield, Maceo Parker and James Brown.

The New York Trio has produced a series of enjoyable session for Venus since the beginning of the 21st century. Consisting of pianist Bill Charlap, bassist Jay Leonhart and drummer Bill Stewart, their fifth album together is similar to earlier efforts, concentrating on accessible treatments of selections from the Great American Songbook. The opening track, "Lover, Come Back to Me," is a swinging affair, with lots of amusing quotes inserted into the mix. "Stairway to the Stars" is suitably a dreamy interpretation, full of romance and gorgeous voicings by Charlap. The bittersweet ballad "I'll Be Seeing You" (forever associated with World War II films where the soldier leaves his love) is a solo feature for Charlap, played with tenderness. "Body and Soul" is one of the most recorded songs in jazz history, but the trio's rendition is worthwhile, even if little new ground is broken. This well-played collection of timeless ballads is perfect for unwinding at the end of the day.

Tracklist:

01. Lover Come Back To Me
02. Stairway To The Stars
03. Lullaby Of The Leaves
04. Smoke Gets In Your Eyes
05. I'll Be Seeing You
06. Can't Help Loving Dat Man
07. Body And Soul
08. The Man I Love
09. A Sleeping Bee
10. Stella By Starlight

Produced, Mixed & Mastered by Tetsuo Hara. Engineered by David Darlington.
Recorded at Avatar Studio in New York on November 11-12, 2004.
Venus Hyper Magnum Sound Direct Mix. VENUS Japan # VHGD-54.

Personnel
Bill Charlap - piano
Jay Leonhart - bass
Bill Stewart - drums

foobar2000 1.3.16 / Dynamic Range Meter 1.1.1

––––––––––––––––––––––––––––––––––––––––
Analyzed: New York Trio / STAIRWAY TO THE STARS
––––––––––––––––––––––––––––––––––––––––

DR Peak RMS Duration Track
––––––––––––––––––––––––––––––––––––––––
DR9 -5.35 dB -16.09 dB 6:18 01-Lover Come Back To Me
DR10 -5.29 dB -18.65 dB 5:36 02-Stairway To The Stars
DR9 -5.21 dB -16.62 dB 6:39 03-Lullaby Of The Leaves
DR11 -5.27 dB -20.27 dB 6:43 04-Smoke Gets In Your Eyes
DR12 -6.27 dB -22.40 dB 2:11 05-I'll Be Seeing You
DR9 -5.20 dB -16.68 dB 5:03 06-Can't Help Loving Dat Man
DR10 -5.57 dB -18.78 dB 7:05 07-Body And Soul
DR9 -4.78 dB -16.45 dB 7:18 08-The Man I Love
DR8 -5.11 dB -15.90 dB 6:21 09-A Sleeping Bee
DR9 -5.14 dB -18.51 dB 4:34 10-Stella By Starlight
––––––––––––––––––––––––––––––––––––––––

Number of tracks: 10
Official DR value: DR10

Samplerate: 2822400 Hz / PCM Samplerate: 88200 Hz
Channels: 2
Bits per sample: 1
Bitrate: 5645 kbps
Codec: DSD64


Thanks to jazzyman!
Uncompressed SACD ISO size > 2,31 GB
>