Subcategories

New York Trio - Thou Swell (2007) [Japan 2016] SACD ISO + Hi-Res FLAC

Posted By: HDAtall
New York Trio - Thou Swell (2007) [Japan 2016] SACD ISO + Hi-Res FLAC

New York Trio - Thou Swell (2007) [Japan 2016]
SACD Rip | SACD ISO | DSD64 2.0 > 1-bit/2.8224 MHz | 55:02 minutes | Front/Rear Covers | 1,68 GB
or FLAC(converted with foobar2000 to tracks) 24bit/88,2 kHz | Front/Rear Covers | 1,11 GB

The New York Trio, consisting of pianist Bill Charlap, bassist Jay Leonhart, and drummer Bill Stewart, have created quite a stir in Japan, as they have entered the studio regularly to record for the Japanese Venus Jazz label at the start of the 21st century. Their sixth CD for the label, Thou Swell draws from the songbook of Richard Rodgers and Lorenz Hart, a composer/lyricist combo who wrote many songs that became standards. As a result, a number of these songs have been frequently recorded by jazz musicians and seem in danger of overexposure. But Charlap is a thoughtful arranger, playing "My Funny Valentine" complete with the usually omitted verse that sets up the song while playing it at a very deliberate tempo, resulting in a stunningly different take. The pendulum-like introduction added to the breezy "I Didn't Know What Time It Was" is fun, as is the lush setting of the infrequently performed "That's for Me." Some pieces can't help but cover familiar ground, but that doesn't detract from these enjoyable performances.

Tracklist:

01. Thou Swell
02. My Funny Valentine
03. I Didn't Know What Time It Was
04. Where Or When
05. My Heart Stood Still
06. That's For Me
07. Have You Met Miss Jones?
08. There's A Small Hotel
09. With A Song In My Heart
10. Wait Till You See Her

Produced, Mixed & Mastered by Tetsuo Hara. Engineered by Katherine Miller.
Recorded at Clinton Studio in New York on September 31 & October 1, 2006.
Venus Hyper Magnum Sound Direct Mix. VENUS Japan # VHGD-146.

Personnel
Bill Charlap - piano
Jay Leonhart - bass
Bill Stewart - drums

foobar2000 1.3.16 / Dynamic Range Meter 1.1.1

––––––––––––––––––––––––––––––––––––––––
Analyzed: NEW YORK TRIO / Thou Swell
––––––––––––––––––––––––––––––––––––––––

DR Peak RMS Duration Track
––––––––––––––––––––––––––––––––––––––––
DR10 -4.84 dB -18.25 dB 4:09 01-Thou Swell
DR14 -5.12 dB -23.31 dB 7:13 02-My Funny Valentine
DR9 -4.61 dB -16.64 dB 5:18 03-I Didn't Know What Time It Was
DR12 -4.87 dB -20.14 dB 7:45 04-Where Or When
DR10 -4.71 dB -17.15 dB 5:49 05-My Heart Stood Still
DR12 -5.11 dB -21.19 dB 4:12 06-That's For Me
DR10 -4.96 dB -17.32 dB 3:57 07-Have You Met Miss Jones?
DR11 -5.12 dB -19.30 dB 4:41 08-There's A Small Hotel
DR9 -4.52 dB -17.43 dB 6:48 09-With A Song In My Heart
DR10 -5.01 dB -18.48 dB 5:07 10-Wait Till You See Her
––––––––––––––––––––––––––––––––––––––––

Number of tracks: 10
Official DR value: DR11

Samplerate: 2822400 Hz / PCM Samplerate: 88200 Hz
Channels: 2
Bits per sample: 1
Bitrate: 5645 kbps
Codec: DSD64


Thanks to jazzyman!
Uncompressed SACD ISO size > 2,23 GB
>