Tags
Language
Tags

Nicki Parrott - The Look Of Love (2013) [Official Digital Download 24/88]

Posted By:
Nicki Parrott - The Look Of Love (2013) [Official Digital Download 24/88]

Nicki Parrott - The Look Of Love (2013)
FLAC (tracks) 24-bit/88,2 kHz | Time - 60:14 minutes | 1,28 GB
Studio Master, Official Digital Download | Artwork: Front cover

On this album, Nicki Parrott performs collection of well-known Theme songs from Hollywood movies. She has that special gift you cannot buy in a music store. She plays the bass fabulously, and has a singing voice that shares the relaxed sexiness of Julie London and the coquettishness of Blossom Dearie.

Tracklist:

01 - Moonlight Serenade (from The Glenn Miller Story)
02 - The Look Of Love (from Casino Royale)
03 - The Man That Got Away (from A Star Is Born)
04 - As Time Goes By (from Casablanca)
05 - The Way We Were (from The Way We Were)
06 - Diamonds Are A Girl's Best Friend (from Gentlemen Prefer Blondes)
07 - I've Grown Accustomed To His Face (from My Fair Lady)
08 - The Shadow Of Your Smile (from The Sandpiper)
09 - Incurably Romantic (from Let's Make Love)
10 - Moon River Cha Cha (from Breakfast At Tiffany)
11 - Over The Rainbow (from The Wizard Of Oz)
12 - Raindrops Keep Fallin' On My Head (from Butch Cassidy And The Sundance Kid)
13 - On The Street Where You Live (from My Fair Lady)
14 - Smile (from Modern Times)

Produced by Tetsuo Hara. Engineered by Katherine Miller.
Recorded on September 17 & 18, 2013 at Avatar Studio, New York.

Musicians:
Nicki Parrott - vocals, bass
Ken Peplowski - tenor saxophone, clarinet
Lisa Parrott - baritone, alto saxophone
John Di Martino - piano
Chuck Redd - vibraphone
Alvin Atkinson - drums

Analyzed: Nicki Parrott / The Look Of Love
––––––––––––––––––––––––––––––––––––––––

DR Peak RMS Duration Track
––––––––––––––––––––––––––––––––––––––––
DR6 -0.28 dB -7.12 dB 4:31 01-Moonlight Serenade (from The Glenn Miller Story)
DR6 -0.28 dB -7.75 dB 3:51 02-The Look Of Love (from Casino Royale)
DR6 -0.28 dB -7.85 dB 5:23 03-The Man That Got Away (from A Star Is Born)
DR7 -0.28 dB -8.13 dB 4:00 04-As Time Goes By (from Casablanca)
DR6 -0.28 dB -7.34 dB 5:34 05-The Way We Were (from The Way We Were)
DR6 -0.28 dB -7.84 dB 3:41 06-Diamonds Are A Girl's Best Friend (from Gentlemen Prefer Blondes)
DR7 -0.28 dB -8.40 dB 4:00 07-I've Grown Accustomed To His Face (from My Fair Lady)
DR6 -0.28 dB -7.59 dB 5:16 08-The Shadow Of Your Smile (from The Sandpiper)
DR5 -0.28 dB -6.64 dB 3:30 09-Incurably Romantic (from Let's Make Love)
DR6 -0.28 dB -7.63 dB 4:14 10-Moon River Cha Cha (from Breakfast At Tiffany)
DR5 -0.28 dB -6.72 dB 4:30 11-Over The Rainbow (from The Wizard Of Oz)
DR6 -0.28 dB -7.44 dB 3:15 12-Raindrops Keep Fallin' On My Head (from Butch Cassidy And The Sundance Kid)
DR6 -0.28 dB -7.33 dB 4:41 13-On The Street Where You Live (from My Fair Lady)
DR8 -0.28 dB -10.48 dB 3:46 14-Smile (from Modern Times)
––––––––––––––––––––––––––––––––––––––––

Number of tracks: 14
Official DR value: DR6

Samplerate: 88200 Hz
Channels: 2
Bits per sample: 24
Bitrate: 2444 kbps
Codec: FLAC
================================================================================


Thanks to the Original customer!