Tags
Language
Tags

Nicki Parrott - Summertime (2012) [Official Digital Download 24/88]

Posted By: HDV
Nicki Parrott - Summertime (2012) [Official Digital Download 24/88]

Nicki Parrott - Summertime (2012)
FLAC (tracks) 24-bit/88,2 kHz | Time - 59:32 minutes | 1,31 GB
Studio Master, Official Digital Download | Artwork: Front cover

Coming after the Spring-themed "Sakura Sakura", "Summertime" is the second in bassist-vocalist's Nicki Parrott's seasonal series of albums. An all-star group of New York-based musicians supports the immensely gifted Parrott on this release. Her sister Lisa is noticeably featured on alto saxophone, soprano saxophone, and bass clarinet. The addition of the marvelous young trumpeter Dominick Farinacci is a great delight.

In June 2000, Nicki began performing on Monday nights at the Iridium Jazz Club with the legendary guitarist and inventor, Les Paul. As part of the Les Paul Trio, Nicki worked side-by-side with guitar greats from Paul McCartney, Slash, Steve Miller to fellow Aussie, Tommy Emmanuel. Since then she has performed with such notable musicians as Michel Legrand, Joe Wilder, Randy Brecker, Clark Terry, Jose Feliciano, Bucky Pizzarelli, John Pizzarelli, Dick Hyman, Patti Labelle & the New York Pops Orchestra, Harry Allen, Warren Vache, Marlena Shaw, David Krakauer, Ken Peplowski, Ann Hampton Callaway, Bill Mays, Scott Hamilton, Lillian Boutte, Larry Carlton and Houston Person, to name a few.

Tracklist:

01 - Too Darn Hot
02 - That Sunday, That Summer
03 - Indian Summer
04 - The Summer Wind
05 - Midnight Sun
06 - On The Sunny Side Of The Street
07 - Estate
08 - Here Comes The Sun
09 - In The Heat Of The Night
10 - When The Sun Comes Out
11 - Summertime
12 - The Things We Did Last Summer
13 - The Summer Knows
14 - You Are The Sunshine Of My Life

Produced by Tetsuo Hara. Engineered by Katherine Miller.
Recorded on April 2-3, 2012 at Avatar Studio in New York.

Musicians:
Nicki Parrott - vocals, bass
John Di Martino - piano
Lisa Parrott - alto & soprano saxophone, bass clarinet
Dominick Farinacci - trumpet
Paul Meyers - guitar
Tim Horner - drums

Analyzed: Nicki Parrott / Summertime
––––––––––––––––––––––––––––––––––––––––

DR Peak RMS Duration Track
––––––––––––––––––––––––––––––––––––––––
DR6 -0.28 dB -7.44 dB 3:49 01-Too Darn Hot
DR6 -0.28 dB -6.85 dB 3:40 02-That Sunday, That Summer
DR6 -0.28 dB -7.12 dB 4:13 03-Indian Summer
DR6 -0.28 dB -7.18 dB 4:12 04-The Summer Wind
DR6 -0.28 dB -6.82 dB 5:48 05-Midnight Sun
DR7 -0.28 dB -8.06 dB 4:27 06-On The Sunny Side Of The Street
DR6 -0.28 dB -7.25 dB 3:46 07-Estate
DR6 -0.28 dB -7.37 dB 3:11 08-Here Comes The Sun
DR6 -0.28 dB -7.13 dB 4:57 09-In The Heat Of The Night
DR6 -0.28 dB -7.09 dB 5:16 10-When The Sun Comes Out
DR6 -0.28 dB -7.51 dB 4:08 11-Summertime
DR6 -0.28 dB -7.32 dB 3:52 12-The Things We Did Last Summer
DR8 -0.29 dB -9.92 dB 3:36 13-The Summer Knows
DR6 -0.28 dB -6.61 dB 4:36 14-You Are The Sunshine Of My Life
––––––––––––––––––––––––––––––––––––––––

Number of tracks: 14
Official DR value: DR6

Samplerate: 88200 Hz
Channels: 2
Bits per sample: 24
Bitrate: 3074 kbps
Codec: FLAC
================================================================================


Thanks to the Original customer!