Nicky Holland - Sense And Sensuality (1997/2017) [Official Digital Download 24-bit/192kHz]

Posted By: HDV
Nicky Holland - Sense And Sensuality (1997/2017) [Official Digital Download 24-bit/192kHz]

Nicky Holland - Sense And Sensuality (1997/2017)
FLAC (tracks) 24-bit/192 kHz | Time - 48:08 minutes | 1,48 GB
FLAC (tracks) 24-bit/96 kHz | Time - 48:08 minutes | 1,03 GB
Studio Master, Official Digital Download | Artwork: Front cover

The second solo album from Nicky Holland which was fated to go the same way as the first and possibly the reason why she never planned another. Nicky recorded a version of "I just don't know what to do with myself" for the film "My Best Friend's Wedding" while Cyndi Lauper had some success with her song "Hatful Of Stars". In a whole it's a collection of gorgeous orchestral pop, criminally underrated and undersold. At its best, it's even better than its jazzy predecessor.

Nicky Holland - Sense And Sensuality (1997/2017) [Official Digital Download 24-bit/192kHz]

Although it's slightly uneven, Sense and Sensuality is a rather enchanting collection of sweeping, orchestral pop. Strings and keyboards are inerlaced throughout the record, providing the perfect instrumental bed for Nicky Holland's wispy voice. Considering that she has written hits for a variety of artists, including Celine Dion, Tears for Fears and Cyndi Lauper, it isn't surprising that the songs on Sense and Sensuality are sturdy and well-constructed. What is surprising is that the songs don't sound manufactured, but intimate and personal, and that's what gives the album its edge.

Tracklist:

01 - Paperchase
02 - Nobody's Girl
03 - Dear Ingrid
04 - In a Broken Dream
05 - Nothing
06 - Falling Water
07 - New York Inside My Head
08 - Cry to Me
09 - Hat Full of Stars
10 - Lay Down
11 - John's First Wedding

Analyzed: Nicky Holland / Sense and Sensuality
––––––––––––––––––––––––––––––––––––––––

DR Peak RMS Duration Track
––––––––––––––––––––––––––––––––––––––––
DR10 -0.72 dB -12.99 dB 3:29 01-Paperchase
DR7 -0.72 dB -10.22 dB 4:30 02-Nobody's Girl
DR10 -0.72 dB -13.99 dB 5:28 03-Dear Ingrid
DR9 -0.72 dB -10.95 dB 4:21 04-In a Broken Dream
DR9 -0.72 dB -11.85 dB 4:18 05-Nothing
DR8 -0.71 dB -11.00 dB 4:53 06-Falling Water
DR10 -0.72 dB -14.67 dB 4:15 07-New York Inside My Head
DR7 -0.71 dB -9.79 dB 3:56 08-Cry to Me
DR11 -0.72 dB -14.33 dB 4:51 09-Hat Full of Stars
DR8 -0.71 dB -11.50 dB 3:27 10-Lay Down
DR11 -0.72 dB -16.03 dB 4:40 11-John's First Wedding
––––––––––––––––––––––––––––––––––––––––

Number of tracks: 11
Official DR value: DR9

Samplerate: 192000 Hz
Channels: 2
Bits per sample: 24
Bitrate: 3884 kbps
Codec: FLAC
================================================================================


Thanks to the Original customer!