Subcategories

Nicki Parrott - Autumn Leaves (2012) [Japan 2015] SACD ISO + Hi-Res FLAC

Posted By: HDAtall
Nicki Parrott - Autumn Leaves (2012) [Japan 2015] SACD ISO + Hi-Res FLAC

Nicki Parrott - Autumn Leaves (2012) [Japan 2015]
SACD Rip | SACD ISO | DSD64 2.0 > 1-bit/2.8224 MHz | 66:07 minutes | Front/Rear Covers | 2,16 GB
or FLAC(converted with foobar2000 to tracks) 24bit/88,2 kHz | Front/Rear Covers | 1,4 GB

This is the third album in vocalist and bassist Nicki Parrott's four-part seasonal series. Autumn Leaves follows the spring-themed Sakura Sakura and Summertime. Similar to those two albums, an excellent group of musicians support Parrott on the album. John Di Martino is featured on piano and Nicki's sister Lisa shines on the baritone sax. Harry Allen on tenor saxophone is an added bonus. These well-known autumn themed songs are refined and cleverly arranged with determined sensibilities and performed with loving lyricism.

Tracklist:

01. Autumn Leaves
02. Early Autumn
03. Autumn In New York
04. Autumn Nocturne
05. Autumn Serenade
06. Autumn In Rome
07. Tis Autumn
08. September Song
09. Lullaby of the Leaves
10. Willow Weep For Me
11. Maybe September
12. September In the Rain
13. When October Goes
14. Stormy Weather

Produced, Mixed & Mastered by Tetsuo Hara. Engineered by Katherine Miller.
Recorded at Avatar Studio in New York on July 18, 19, 23 & 24, 2012.
Venus Hyper Magnum Sound Direct Mix. VENUS Japan # VHGD-92.

Personnel
Nicki Parrott - vocals, bass
John Di Martino - piano
Lisa Parrott - baritone saxophone
Paul Meyers - guitar
Tim Horner - drums
Harry Allen - tenor saxophone
James Greening - trombone

foobar2000 1.3.16 / Dynamic Range Meter 1.1.1

––––––––––––––––––––––––––––––––––––––––
Analyzed: NICKI PARROTT / Autumn Leaves
––––––––––––––––––––––––––––––––––––––––

DR Peak RMS Duration Track
––––––––––––––––––––––––––––––––––––––––
DR7 -4.42 dB -13.10 dB 3:45 01-Autumn Leaves
DR7 -4.58 dB -13.56 dB 5:10 02-Early Autumn
DR8 -4.86 dB -13.80 dB 5:23 03-Autumn In New York
DR6 -4.77 dB -12.95 dB 5:15 04-Autumn Nocturne
DR7 -5.17 dB -13.68 dB 4:30 05-Autumn Serenade
DR7 -4.78 dB -13.14 dB 4:11 06-Autumn In Rome
DR8 -4.37 dB -13.54 dB 5:12 07-Tis Autumn
DR7 -5.49 dB -15.61 dB 4:28 08-September Song
DR7 -4.60 dB -13.13 dB 4:40 09-Lullaby of the Leaves
DR8 -4.33 dB -13.33 dB 5:42 10-Willow Weep For Me
DR8 -5.98 dB -16.19 dB 3:41 11-Maybe September
DR8 -4.31 dB -13.73 dB 4:30 12-September In the Rain
DR7 -4.31 dB -12.54 dB 5:06 13-When October Goes
DR7 -4.36 dB -13.57 dB 4:33 14-Stormy Weather
––––––––––––––––––––––––––––––––––––––––

Number of tracks: 14
Official DR value: DR7

Samplerate: 2822400 Hz / PCM Samplerate: 88200 Hz
Channels: 2
Bits per sample: 1
Bitrate: 5645 kbps
Codec: DSD64


Thanks to jazzyman!
Uncompressed SACD ISO size > 2,66 GB
>