Nicki Parrott - Close To You: Burt Bacharach Song Book (2017) [Japan] SACD ISO + Hi-Res FLAC

Posted By: HDAtall
Nicki Parrott - Close To You: Burt Bacharach Song Book (2017) [Japan] SACD ISO + Hi-Res FLAC

Nicki Parrott - Close To You: Burt Bacharach Song Book (2017) [Venus Japan]
SACD Rip | SACD ISO | DSD64 2.0 > 1-bit/2.8224 MHz | 54:02 minutes | Front/Rear Covers | 1,61 GB
or FLAC(converted with foobar2000 to tracks) 24bit/88,2 kHz | Front/Rear Covers | 1,09 GB

Australian-born and New York-based Nicki Parrott is a double threat: She can play the bass very competently, and has a singing voice that shares the relaxed sexiness of Julie London and the coquettishness of Blossom Dearie. She has performed and recorded with the legendary guitarist Les Paul, pianist Rachel Z and her sister Lisa Parrott. For this collection of Burt Bacharach songs, Nicki is supported by John Di Martino on piano, Paul Meyers on guitar, Harry Allen on tenor sax, and Alvin Atkinson on drums.

Tracklist:

01. Walk On By
02. Alfie
03. Close To You
04. Raindrops Keep Fallin' On My Head
05. Wishin' And Hopin'
06. A House In Not A Home
07. You'll Never Get To Heaven
08. Wives And Lovers
09. The April Fools
10. There's Always Something There To Remind Me
11. Make It Easy On Yourself
12. Do You Know The Way To San Jose
13. This Girls In Love With You
14. I Say A Little Prayer
15. What The World Needs Now Is Love

Produced, Mixed & Mastered by Tetsuo Hara. Engineered by Chris Sulit.
Recorded on July 4-6, 2017 at at Trading 8's Studio in New York.
Venus Hyper Magnum Sound Direct Mix. VENUS Japan # VHGD-248.

Personnel
Nicki Parrott - vocals, bass
John Di Martino - piano
Harry Allen - tenor sax
Paul Meyers - guitar
Alvin Atkinson - drums

foobar2000 1.3.17 / Dynamic Range Meter 1.1.1

––––––––––––––––––––––––––––––––––––––––
Analyzed: NICKI PARROTT / Close To You
––––––––––––––––––––––––––––––––––––––––

DR Peak RMS Duration Track
––––––––––––––––––––––––––––––––––––––––
DR9 -5.33 dB -16.21 dB 3:13 01-Walk On By
DR9 -5.34 dB -17.82 dB 4:44 02-Alfie
DR8 -5.25 dB -15.21 dB 3:21 03-Close To You
DR8 -5.41 dB -15.36 dB 3:07 04-Raindrops Keep Fallin' On My Head
DR8 -5.31 dB -15.06 dB 3:02 05-Wishin' And Hopin'
DR8 -5.35 dB -15.99 dB 5:14 06-A House In Not A Home
DR11 -5.51 dB -19.52 dB 3:12 07-You'll Never Get To Heaven
DR9 -5.43 dB -16.66 dB 3:14 08-Wives And Lovers
DR9 -5.44 dB -19.04 dB 3:35 09-The April Fools
DR7 -5.11 dB -13.71 dB 2:31 10-There's Always Something There To Remind Me
DR10 -5.28 dB -18.19 dB 4:03 11-Make It Easy On Yourself
DR7 -5.34 dB -13.70 dB 3:52 12-Do You Know The Way To San Jose
DR10 -5.46 dB -19.50 dB 3:32 13-This Girls In Love With You
DR7 -5.15 dB -14.84 dB 3:34 14-I Say A Little Prayer
DR9 -5.26 dB -17.34 dB 3:49 15-What The World Needs Now Is Love
––––––––––––––––––––––––––––––––––––––––

Number of tracks: 15
Official DR value: DR9

Samplerate: 2822400 Hz / PCM Samplerate: 88200 Hz
Channels: 2
Bits per sample: 1
Bitrate: 5645 kbps
Codec: DSD64


Thanks to jazzyman!
Uncompressed SACD ISO size > 2,16 GB

More of NICKI PARROTT on SACD
>