Nicki Parrott - Winter Wonderland (2012) [Japan 2015] SACD ISO + Hi-Res FLAC

Posted By: HDAtall
Nicki Parrott - Winter Wonderland (2012) [Japan 2015] SACD ISO + Hi-Res FLAC

Nicki Parrott - Fly Me To The Moon (2009) [Japan 2014]
SACD Rip | SACD ISO | DSD64 2.0 > 1-bit/2.8224 MHz | 62:07 minutes | Front/Rear Covers | 1,94 GB
or FLAC(converted with foobar2000 to tracks) 24bit/88,2 kHz | Front/Rear Covers | 1,37 GB

Acclaimed bassist & vocalist Nicki Parrott is joined by sax player Houston Person, pianist John di Martino along with a host of competent musicians for this album dedicated to songs of the Winter season including several Christmas tunes. You'll find such songs as "Have Yourself a Merry Little Christmas", "Blue Christmas", "June In January", "I've Got My Love to Keep Me Warm", and of course, "Winter Wonderland".

Tracklist:

01. Have Yourself A Merry Little Christmas
02. Christmas In New Orleans
03. I'll Be Home For Christmas
04. The Christmas Song
05. Blackberry Winter
06. Blue Christmas
07. I've Got My Love To Keep Me Warm
08. Christmas Time Is Here
09. White Christmas
10. June In January
11. My Favorite Things
12. Winter Weather
13. Baby, It's Cold Outside
14. Winter Wonderland
15. What Are You Doing New Year's Eve?

Produced, Mixed & Mastered by Tetsuo Hara. Engineered by Katherine Miller.
Recorded on Auguust 24-25, 2012 at Avatar Studio in New York.
Venus Hyper Magnum Sound Direct Mix. VENUS Japan # VHGD-110.

Personnel
Nicki Parrott - vocals, bass
John Di Martino - piano
Houston Person - tenor saxophone
Lisa Parrott - baritone saxophone
Paul Meyers - guitar
Tim Horner - drums

foobar2000 1.3.16 / Dynamic Range Meter 1.1.1

––––––––––––––––––––––––––––––––––––––––
Analyzed: NICKI PARROTT / Winter Wonderland
––––––––––––––––––––––––––––––––––––––––

DR Peak RMS Duration Track
––––––––––––––––––––––––––––––––––––––––
DR6 -4.24 dB -11.95 dB 5:25 01-Have Yourself A Merry Little Christmas
DR6 -4.24 dB -11.70 dB 4:36 02-Christmas In New Orleans
DR7 -4.29 dB -13.25 dB 3:35 03-I'll Be Home For Christmas
DR7 -4.23 dB -12.04 dB 5:33 04-The Christmas Song
DR8 -4.45 dB -15.21 dB 4:12 05-Blackberry Winter
DR7 -4.24 dB -12.29 dB 3:51 06-Blue Christmas
DR6 -4.23 dB -11.37 dB 4:23 07-I've Got My Love To Keep Me Warm
DR6 -4.28 dB -11.81 dB 3:55 08-Christmas Time Is Here
DR6 -4.16 dB -11.63 dB 3:41 09-White Christmas
DR7 -4.17 dB -12.49 dB 4:05 10-June In January
DR6 -4.15 dB -12.03 dB 4:43 11-My Favorite Things
DR6 -4.00 dB -12.11 dB 3:24 12-Winter Weather
DR7 -4.37 dB -13.21 dB 3:53 13-Baby, It's Cold Outside
DR7 -4.26 dB -12.11 dB 3:28 14-Winter Wonderland
DR7 -4.42 dB -12.87 dB 3:23 15-What Are You Doing New Year's Eve?
––––––––––––––––––––––––––––––––––––––––

Number of tracks: 15
Official DR value: DR7

Samplerate: 2822400 Hz / PCM Samplerate: 88200 Hz
Channels: 2
Bits per sample: 1
Bitrate: 5645 kbps
Codec: DSD64


Thanks to jazzyman!
Uncompressed SACD ISO size > 2,49 GB

More of NICKI PARROTT on SACD
>