Norah Jones - Day Breaks {Deluxe Edition} (2017) [Official Digital Download]

Posted By: HDV
Norah Jones - Day Breaks {Deluxe Edition} (2017) [Official Digital Download]

Norah Jones - Day Breaks (2017) [Deluxe Edition]
FLAC (tracks) 24-bit/44,1 kHz | Time - 90:01 minutes | 970 MB
Studio Master, Official Digital Download | Artwork: Front cover

Blue Note Records released a new Deluxe Edition of Norah Jones' acclaimed album "Day Breaks". The expanded track listing includes the addition of nine songs recorded live in New York City during Norah's memorable album release shows at the Sheen Center's Loreto Theater in October 2016. The live cuts include versions of songs from Day Breaks like “Flipside” and the Horace Silver ballad “Peace”, as well as fan favorites like “Don't Know Why” and “Sunrise”, performed by Norah (voice, piano), Chris Thomas (bass), Brian Blade (drums), Pete Remm (Hammond B-3 organ), and background vocalists Tarriona ‘Tank’ Ball & Anjelika ‘Jelly’ Joseph of Tank and The Bangas (winners of NPR Music's 2017 Tiny Desk Contest).

Norah Jones took liberty with her blockbuster success to set out on a musical walkabout, spending a good portion of the decade following 2004's Not Too Late experimenting, either on her own albums or on a variety of collaborations. Day Breaks, released four years after the atmospheric adult alternative pop of the Danger Mouse-produced Little Broken Hearts, finds Jones returning home to an extent: it, like her 2002 debut Come Away with Me, is a singer/songwriter album with roots in pop and jazz, divided between originals and sharply selected covers. Such similarities are immediately apparent, but Day Breaks is much slyer than a mere revival. That term suggests a slight air of desperation, but Jones comes from a place of confidence on Day Breaks, happy to demonstrate everything she's learned over the years. Often, these tricks are deliberately sly: she'll pair her torchy original "And Then There Was You" with a woozy, bluesy cover of Neil Young's "Don't Be Denied" that winds up evoking Come Away with Me, then follow that up with the dense, nocturnal rhythms of "Day Breaks." She threads in versions of Horace Silver's "Peace" and Duke Ellington's "African Flower" while inviting saxophonist Wayne Shorter and organist Lonnie Smith in to play – moves that signal that there's a strong, elastic jazz undercurrent to Day Breaks that means this record breathes more than her debut. Such a sense of quiet adventure gives the record depth, but what gives it resonance are the exquisitely sculpted songs. Jones' originals feel as elegant as time-honored standards, and all her covers feel fresh. The former speak to her craft, the latter to her gifts as a stylist, and the two combine to turn Day Breaks into a satisfying testament to her ever-evolving musicianship.

Tracklist:

01 - Burn
02 - Tragedy
03 - Flipside
04 - It's A Wonderful Time For Love
05 - And Then There Was You
06 - Don't Be Denied
07 - Day Breaks
08 - Peace
09 - Once I Had A Laugh
10 - Sleeping Wild
11 - Carry On
12 - Fleurette Africaine (African Flower)
13 - Peace (Live In NYC)
14 - I've Got To See You Again (Live In NYC)
15 - Out On The Road (Live In NYC)
16 - Sunrise (Live In NYC)
17 - Burn (Live In NYC)
18 - It's A Wonderful Time For Love (Live In NYC)
19 - Flipside (Live In NYC)
20 - Don't Know Why (Live In NYC)
21 - Fleurette Africaine (African Flower) (Live In NYC)

Tracks "13-21" are Bonus tracks for 2017 Deluxe Edition.

Analyzed: Norah Jones / Day Breaks (Deluxe Edition)
––––––––––––––––––––––––––––––––––––––––

DR Peak RMS Duration Track
––––––––––––––––––––––––––––––––––––––––
DR10 -0.36 dB -12.58 dB 4:39 01-Burn
DR9 -0.21 dB -11.72 dB 4:15 02-Tragedy
DR7 0.00 dB -9.11 dB 3:41 03-Flipside
DR12 -0.41 dB -15.01 dB 3:54 04-It's A Wonderful Time For Love
DR11 -0.40 dB -14.79 dB 3:06 05-And Then There Was You
DR9 0.00 dB -11.18 dB 5:36 06-Don't Be Denied
DR9 -0.22 dB -12.11 dB 3:58 07-Day Breaks
DR11 -0.31 dB -13.99 dB 5:15 08-Peace
DR10 -0.28 dB -12.16 dB 3:13 09-Once I Had A Laugh
DR11 -0.40 dB -14.38 dB 3:08 10-Sleeping Wild
DR10 -0.35 dB -12.60 dB 2:48 11-Carry On
DR12 -0.39 dB -14.98 dB 5:22 12-Fleurette Africaine (African Flower)
DR10 0.00 dB -13.15 dB 4:04 13-Peace (Live In NYC)
DR9 0.00 dB -11.79 dB 5:08 14-I've Got To See You Again (Live In NYC)
DR8 0.00 dB -11.05 dB 4:31 15-Out On The Road (Live In NYC)
DR9 0.00 dB -12.98 dB 3:41 16-Sunrise (Live In NYC)
DR10 0.00 dB -13.13 dB 5:58 17-Burn (Live In NYC)
DR10 0.00 dB -12.88 dB 3:53 18-It's A Wonderful Time For Love (Live In NYC)
DR9 0.00 dB -11.85 dB 4:40 19-Flipside (Live In NYC)
DR10 0.00 dB -12.79 dB 3:53 20-Don't Know Why (Live In NYC)
DR13 -0.35 dB -16.80 dB 5:19 21-Fleurette Africaine (African Flower) (Live In NYC)
––––––––––––––––––––––––––––––––––––––––

Number of tracks: 21
Official DR value: DR10

Samplerate: 44100 Hz
Channels: 2
Bits per sample: 24
Bitrate: 1413 kbps
Codec: FLAC
================================================================================


Thanks to the Original customer!