Obey The Brave - Mad Season (2017) [Official Digital Download]

Posted By: HDV
Obey The Brave - Mad Season (2017) [Official Digital Download]

Obey The Brave - Mad Season (2017)
FLAC (tracks) 24-bit/48 kHz | Time - 39:35 minutes | 540 MB
Studio Master, Official Digital Download | Artwork: Front cover

Canadian metal five-piece Obey the Brave present their third studio album, "Mad Season", the follow-up to 2014's "Salvation". This album sees the band branching out with a collaboration with French-Canadian rap group Loud Lary Ajust on "RIP". The album was released by Epitaph Records.

Mad Season, the band’s diverse and defiant third album, arrives after the most turbulent period of the group’s career. Yet as vocalist Alex Erian puts it with appropriately blunt eloquence: “We’re back stronger than ever.” OBEY THE BRAVE churns out anthems of empowerment born of adversity. It’s the songs that embolden the spirit and exorcise personal demons, whether in the pit or on a day’s commute. Songs like “Raise Your Voice,” “Full Circle,” and “Get Real” are quintessential metalcore bangers. Named for the tumultuous period of its creation, Mad Season is a truly collaborative effort musically and lyrically. Joining shortly into the touring cycle for 2014’s Salvation, Terrence McAuley (guitar) and Cory Wilson (bass) gelled instantly with original members Erian, John Campbell (guitar), and Stevie Morotti (drums). McAuley also served as co-producer, alongside engineer and mixer Dean Hadjichristou. (Protest The Hero , Parkway Drive.) “In a weird twisted way I’m thankful for everything it took to get this record made because it all tested our commitment to the band and we’re still here, you know, we’re still swinging,” says Erian. “The bottom line is, we put so much of ourselves into Mad Season and the music speaks for itself.”

Tracklist:

01 - On Thin Ice
02 - Drama
03 - On Our Own
04 - Mad Season
05 - 97 Again
06 - Les Temps Sont Durs
07 - Low Key
08 - Feed The Fire
09 - The Distance
10 - Way It Goes
11 - RIP
12 - This Is It

Analyzed: Obey The Brave / Mad Season
––––––––––––––––––––––––––––––––––––––––

DR Peak RMS Duration Track
––––––––––––––––––––––––––––––––––––––––
DR6 0.00 dB -7.67 dB 3:40 01-On Thin Ice
DR7 0.00 dB -8.04 dB 3:28 02-Drama
DR6 0.00 dB -7.34 dB 2:23 03-On Our Own
DR6 0.00 dB -7.81 dB 3:14 04-Mad Season
DR7 0.00 dB -7.84 dB 3:42 05-97 Again
DR7 0.00 dB -8.31 dB 3:34 06-Les Temps Sont Durs
DR6 -0.06 dB -8.08 dB 1:39 07-Low Key
DR6 0.00 dB -7.55 dB 3:40 08-Feed The Fire
DR7 0.00 dB -7.34 dB 2:55 09-The Distance
DR7 0.00 dB -8.13 dB 3:16 10-Way It Goes
DR7 0.00 dB -9.25 dB 4:51 11-RIP
DR7 0.00 dB -9.35 dB 3:12 12-This Is It
––––––––––––––––––––––––––––––––––––––––

Number of tracks: 12
Official DR value: DR7

Samplerate: 48000 Hz
Channels: 2
Bits per sample: 24
Bitrate: 1754 kbps
Codec: FLAC
================================================================================


Thanks to the Original customer!