Obey The Brave - Salvation (2014) [Official Digital Download]

Posted By: HDV
Obey The Brave - Salvation (2014) [Official Digital Download]

Obey The Brave - Salvation (2014)
FLAC (tracks) 24-bit/44,1 kHz | Time - 40:25 minutes | 523 MB
Studio Master, Official Digital Download | Artwork: Front cover

Canadian metalcore band Obey The Brave first emerged onto the landscape of aggressive audio in 2012, combining ex-members of heralded deathcore outfit Despised Icon and metalcore quintet Blind Witness. Their Epitaph debut, "Young Blood", garnered the band major attention in the scene, touring alongside Suicide Silence, Unearth, Dance Gavin Dance and others. Now comes "Salvation", a follow-up that does what all great follow-ups should do: builds on the many strengths of the original, then takes it all to a new level.


Upon hearing "Short Fuse," the opening track of Obey the Brave's sophomore album, Salvation, it would be easy to think that you've stumbled upon a lost gem from that magic moment in the '90s when hardcore and thrash took the Youth Crew sound in a whole new direction. With its blunt, straightforward heaviness, gang vocals, and bellowing violence, the album proves that this is one band that understands what metalcore is all about. Although the album is punctuated with forays into melodic hardcore, like the soaring choruses of "Up in Smoke" or the plaintive rock of "Lone Wolf," the Salvation always keeps one eye pointed toward aggression, so no matter how far Obey the Brave's sound might wander, it always returns to the mosh pit. Although it would be easy to dismiss these moments of melody as simply taking away from the heaviness, they serve a crucial function in the formula Obey the Brave are working with, allowing the album to climb rapturously upwards before it comes crashing down to earth with the full force of a punishing, classic hardcore breakdown. It also means that, while Salvation might sound like an album from the early days of Victory Records, it doesn't necessarily sound old. By putting in these little moments of lightness here and there, Obey the Brave add a level of dynamic nuance that bands like Earth Crisis never reached. This makes Salvation a more evolved take on classic metalcore that hardcore fans of any era will be able to appreciate briefly as they're being caught up in the whirlwind of a circle pit.

Tracklist:

01 - Short Fuse
02 - Raise Your Voice
03 - Up In Smoke
04 - Into The Storm
05 - Next Level
06 - Back In The Day
07 - I Am Winter
08 - Lone Wolf
09 - C'est La Vie
10 - Full Circle
11 - North Strong
12 - Brave The Fire

Analyzed: Obey The Brave / Salvation
––––––––––––––––––––––––––––––––––––––––

DR Peak RMS Duration Track
––––––––––––––––––––––––––––––––––––––––
DR5 -0.61 dB -6.59 dB 1:43 01-Short Fuse
DR5 -0.61 dB -5.72 dB 3:36 02-Raise Your Voice
DR4 -0.61 dB -5.67 dB 3:31 03-Up In Smoke
DR4 -0.61 dB -6.02 dB 3:13 04-Into The Storm
DR5 -0.61 dB -5.99 dB 3:23 05-Next Level
DR5 -0.61 dB -5.77 dB 3:14 06-Back In The Day
DR4 -0.61 dB -6.21 dB 3:22 07-I Am Winter
DR4 -0.61 dB -5.67 dB 3:39 08-Lone Wolf
DR4 -0.61 dB -5.63 dB 3:31 09-C'est La Vie
DR4 -0.10 dB -5.36 dB 3:36 10-Full Circle
DR5 -0.61 dB -6.18 dB 3:24 11-North Strong
DR4 -0.61 dB -6.07 dB 4:14 12-Brave The Fire
––––––––––––––––––––––––––––––––––––––––

Number of tracks: 12
Official DR value: DR4

Samplerate: 44100 Hz
Channels: 2
Bits per sample: 24
Bitrate: 1729 kbps
Codec: FLAC
================================================================================


Thanks to the Original customer!