Tags
Language
Tags

ODESZA - In Return (2014) [Deluxe Edition 2015] (Official Digital Download)

Posted By: HDV
ODESZA - In Return (2014) [Deluxe Edition 2015] (Official Digital Download)

ODESZA - In Return (2014) [Deluxe Edition 2015]
FLAC (tracks) 24-bit/44,1 kHz | Time - 116:27 minutes | 1,38 GB
Studio Master, Official Digital Download | Artwork: Front cover

ODESZA's second album showcases the Seattle duo's impeccable signature tribal sound filled with celestial synths, smooth chord progressions, glitchy digital effects and chillwave beats. Definitely an adequate audio companion for your upcoming weekend adventures. This new Deluxe Edition, in addition to the original 13 tracks, includes live recordings of “Bloom” and “Say My Name (feat. Zyra)”, plus “IPlayYouListen” from Summer’s Gone. There’s also the new song “Light (feat. Little Dragon)”, and instrumentals of the original tracks.

ODESZA - In Return (2014) [Deluxe Edition 2015] (Official Digital Download)

Seattle duo ODESZA stated their own sound with the title of their 2012 debut, Summer's Gone, a two-word phrase that perfectly captures the bittersweet and blissful mood of their electro-pop. In Return, the band's sophomore release, is an equally apt title on chronology alone, but it's also an indication that the band continues to offer the warm fuzzies, and still fills the gap between acts like Pretty Lights and Miike Snow. Making their porridge "just right," ODESZA are the group for the third bear, as highlight "Say My Name" with vocalist Zyra could be an asset on a mixtape marked "hipster," "everyman," "reserved snob," or "club kid." With clicks and chaos both soothed by the siren that is vocalist Py, "Echoes" holds appeal for those who like things brittle and glitchy, but also those who like things very Sia or Lorde. Ethereal and epic as well, "Memories That You Call" must be what it sounds like when Buddhist temples hold raves, while "All We Need" with Shy Girls is a different, more Prince-like and radio-worthy take on the genre of cloudy indie R&B. In the end, the diverse and dreamy In Return is just like Summer's Gone with sampled vocals being replaced by well-selected vocalists, but more than anything, it's a humble crowd-pleaser, wistful and warm just like another end of summer.

Tracklist:

01 - Always This Late
02 - Say My Name (feat. Zyra)
03 - Bloom
04 - All We Need (feat. Shy Girls)
05 - Sundara
06 - White Lies (feat. Jenni Potts)
07 - Kusanagi
08 - Echoes (feat. Py)
09 - It's Only (feat. Zyra)
10 - Koto
11 - Memories That You Call (feat. Monsoonsiren)
12 - Sun Models (feat. Madelyn Grant)
13 - For Us (feat. Briana Marela)
14 - Light (feat. Little Dragon)
15 - IPlayYouListen (Live)
16 - Bloom (Live)
17 - Say My Name (feat. Zyra) (Live)
18 - Always This Late (Instrumental)
19 - Say My Name (Instrumental)
20 - Bloom (Instrumental)
21 - All We Need (Instrumental)
22 - Sundara (Instrumental)
23 - White Lies (Instrumental)
24 - Kusanagi (Instrumental)
25 - Echoes (Instrumental)
26 - It's Only (Instrumental)
27 - Koto (Instrumental)
28 - Memories That You Call (Instrumental)
29 - Sun Models (Instrumental)
30 - For Us (Instrumental)
31 - Light (Instrumental)

Track "6" presented in 24bit/48kHz.

Analyzed: ODESZA / In Return (Deluxe Edition)
––––––––––––––––––––––––––––––––––––––––

DR Peak RMS Duration Track
––––––––––––––––––––––––––––––––––––––––
DR6 -0.22 dB -7.96 dB 2:41 01-Always This Late
DR5 -0.22 dB -7.26 dB 4:23 02-Say My Name (feat. Zyra)
DR4 -0.05 dB -6.45 dB 3:16 03-Bloom
DR6 -0.23 dB -7.67 dB 3:31 04-All We Need (feat. Shy Girls)
DR6 -0.22 dB -8.14 dB 2:16 05-Sundara
DR5 -0.22 dB -8.40 dB 3:28 07-Kusanagi
DR5 -0.22 dB -7.91 dB 4:24 08-Echoes (feat. Py)
DR6 -0.21 dB -8.55 dB 4:28 09-It's Only (feat. Zyra)
DR3 -0.21 dB -5.37 dB 3:14 10-Koto
DR5 -0.22 dB -9.37 dB 4:08 11-Memories That You Call (feat. Monsoonsiren)
DR7 -0.22 dB -9.18 dB 2:40 12-Sun Models (feat. Madelyn Grant)
DR4 -0.22 dB -7.90 dB 5:49 13-For Us (feat. Briana Marela)
DR5 -0.30 dB -8.01 dB 4:14 14-Light (feat. Little Dragon)
DR5 -0.30 dB -6.32 dB 4:30 15-IPlayYouListen (Live)
DR5 -0.30 dB -7.53 dB 3:30 16-Bloom (Live)
DR5 -0.30 dB -7.97 dB 4:06 17-Say My Name (feat. Zyra) (Live)
DR6 -0.20 dB -8.35 dB 2:41 18-Always This Late (Instrumental)
DR5 -0.22 dB -7.30 dB 4:02 19-Say My Name (Instrumental)
DR5 -0.20 dB -8.67 dB 3:01 20-Bloom (Instrumental)
DR6 -0.23 dB -8.11 dB 3:31 21-All We Need (Instrumental)
DR6 -0.22 dB -8.16 dB 2:15 22-Sundara (Instrumental)
DR5 0.00 dB -7.41 dB 4:37 23-White Lies (Instrumental)
DR5 -0.22 dB -8.48 dB 3:28 24-Kusanagi (Instrumental)
DR6 -0.22 dB -8.32 dB 4:10 25-Echoes (Instrumental)
DR7 -0.21 dB -9.47 dB 4:20 26-It's Only (Instrumental)
DR7 -0.21 dB -9.89 dB 3:14 27-Koto (Instrumental)
DR6 -0.20 dB -9.80 dB 3:44 28-Memories That You Call (Instrumental)
DR7 -0.22 dB -9.34 dB 2:24 29-Sun Models (Instrumental)
DR4 -0.20 dB -8.18 dB 5:30 30-For Us (Instrumental)
DR6 -0.30 dB -9.92 dB 4:14 31-Light (Instrumental)
––––––––––––––––––––––––––––––––––––––––

Number of tracks: 30
Official DR value: DR5

Samplerate: 44100 Hz
Channels: 2
Bits per sample: 24
Bitrate: 1646 kbps
Codec: FLAC
================================================================================

––––––––––––––––––––––––––––––––––––––––
Statistics for: 06-White Lies (feat. Jenni Potts)
Number of samples: 13312000
Duration: 4:37
––––––––––––––––––––––––––––––––––––––––

Left Right

Peak Value: -0.22 dB –- -0.22 dB
Avg RMS: -6.91 dB –- -6.95 dB
DR channel: 4.77 dB –- 4.90 dB
––––––––––––––––––––––––––––––––––––––––

Official DR Value: DR5

Samplerate: 48000 Hz
Channels: 2
Bits per sample: 24
Bitrate: 1792 kbps
Codec: FLAC
================================================================================


Thanks to the Original customer!