Omnibus Wind Ensemble - Music By Frank Zappa (2001) [2.0 & 4.0] PS3 ISO + Hi-Res FLAC / RE-UP

Posted By: HDAtall
Omnibus Wind Ensemble - Music By Frank Zappa (2001) [2.0 & 4.0] PS3 ISO + Hi-Res FLAC / RE-UP

Omnibus Wind Ensemble - Music By Frank Zappa (2001)
PS3 Rip | SACD ISO | DST64 2.0 & 4.0 > 1-bit/2.8224 MHz | 64:43 minutes | Scans included | 3,17 GB
or FLAC 2.0 Stereo (converted with foobar2000 to tracks) 24bit/88,2 kHz | Scans included | 1,3 GB
Features Stereo & Multichannel Surround Sound / OPUS 3 CD # 19423

The Omnibus Wind Ensemble's interest in Frank Zappa's music dates back to the beginning of the 1980s, almost from their very beginnings. Under the motto "From Mozart to Zappa", which also became the title of their 1st, widely acclaimed CD on the Opus3 label, they have had many of Frank Zappa's compositions in their repertoire over the years.

The music of Frank Zappa has always defied classification, & those who have not studied it closely perhaps do not realize how much jazz & classical music it contains. (Zappa composed a percussion piece when he was only 15!) Arguably, Frank Zappa is 1 of this century's most interesting composers & perhaps the best kept musical secret in the USA.

This Omnibus SACD "Music By Frank Zappa" is a grand tour of his music - from the beautiful "Peaches En Regalia", the highly complex "Revised Music For A Low Budget Orchestra", the outstandingly humorous "Brown Shoes Don't Make It" to the jazz-bluesy introduction etc. of "Inca Roads", with all the fireworks that follow it! The disc ends with a piece which was not written by Frank Zappa, namely Maurice Ravel's "Bolero" here in a big-band-influenced special arrangement inspired by Zappa's own version from 1988. Classical, Jazz or Rock!?

Tracklist:

01. Inca Roads
02. How Could I Be Such A Fool
03. Revised Music For A Low Budget Orchestra
04. Let's Make The Water Turn Black
05. The Black Page no 2
06. No 7
07. Igor's Boogie
08. Be-Bop Tango
09. Alien Orifice
10. Dog Breath Variations
11. Uncle Meat
12. Sinister Footwear, 2nd movement
13. Brown Shoes Don't Make It
14. Peaches En Regalia
15. Bolero

Produced by Sarah Lindloff & Jan-Eric Persson. Arranger: Per Erik Adamsson.
Recorded in June 1994 - July 1995. Recording Engineer: Jan-Eric Persson.
Mastered by Bob Whitney & Jan-Eric Persson at Sony Music Studios, London, UK.

foobar2000 1.3.16 / Dynamic Range Meter 1.1.1

––––––––––––––––––––––––––––––––––––––––
Analyzed: Omnibus Wind Ensemble / Music By Frank Zappa
––––––––––––––––––––––––––––––––––––––––

DR Peak RMS Duration Track
––––––––––––––––––––––––––––––––––––––––
DR13 -8.55 dB -34.89 dB 8:00 01-Inca Roads
DR9 -12.16 dB -31.63 dB 2:24 02-How Could I Be Such A Fool
DR13 -8.29 dB -33.95 dB 8:38 03-Revised Music For A Low Budget Orchestra
DR9 -11.17 dB -29.71 dB 1:46 04-Let's Make The Water Turn Black
DR11 -11.83 dB -34.02 dB 5:21 05-The Black Page no 2
DR8 -17.54 dB -36.50 dB 2:17 06-No 7
DR11 -14.06 dB -35.29 dB 1:14 07-Igor's Boogie
DR11 -13.86 dB -34.94 dB 3:43 08-Be-Bop Tango
DR9 -15.26 dB -34.87 dB 5:17 09-Alien Orifice
DR10 -13.44 dB -33.83 dB 2:17 10-Dog Breath Variations
DR12 -13.63 dB -33.88 dB 3:00 11-Uncle Meat
DR11 -8.82 dB -32.64 dB 4:37 12-Sinister Footwear, 2nd movement
DR10 -13.68 dB -33.23 dB 6:54 13-Brown Shoes Don't Make It
DR9 -14.15 dB -32.23 dB 3:18 14-Peaches En Regalia
DR12 -9.69 dB -31.17 dB 5:57 15-Bolero
––––––––––––––––––––––––––––––––––––––––

Number of tracks: 15
Official DR value: DR11

Samplerate: 2822400 Hz / PCM Samplerate: 88200 Hz
Channels: 5
Bits per sample: 1
Bitrate: 14112 kbps
Codec: DST64
================================================================================

––––––––––––––––––––––––––––––––––––––––
Analyzed: Omnibus Wind Ensemble / Music By Frank Zappa
––––––––––––––––––––––––––––––––––––––––

DR Peak RMS Duration Track
––––––––––––––––––––––––––––––––––––––––
DR16 -8.55 dB -31.21 dB 8:00 01-Inca Roads
DR10 -12.16 dB -28.22 dB 2:24 02-How Could I Be Such A Fool
DR16 -8.29 dB -30.52 dB 8:38 03-Revised Music For A Low Budget Orchestra
DR11 -11.17 dB -26.00 dB 1:46 04-Let's Make The Water Turn Black
DR13 -11.83 dB -30.31 dB 5:21 05-The Black Page no 2
DR11 -17.54 dB -33.27 dB 2:17 06-No 7
DR13 -14.06 dB -32.05 dB 1:14 07-Igor's Boogie
DR13 -13.86 dB -31.37 dB 3:43 08-Be-Bop Tango
DR12 -15.26 dB -31.62 dB 5:17 09-Alien Orifice
DR13 -13.44 dB -30.45 dB 2:17 10-Dog Breath Variations
DR14 -13.63 dB -30.51 dB 3:00 11-Uncle Meat
DR14 -8.82 dB -29.05 dB 4:37 12-Sinister Footwear, 2nd movement
DR12 -13.68 dB -29.74 dB 6:54 13-Brown Shoes Don't Make It
DR12 -14.15 dB -29.14 dB 3:18 14-Peaches En Regalia
DR13 -9.69 dB -27.92 dB 5:57 15-Bolero
––––––––––––––––––––––––––––––––––––––––

Number of tracks: 15
Official DR value: DR13

Samplerate: 2822400 Hz / PCM Samplerate: 88200 Hz
Channels: 2
Bits per sample: 1
Bitrate: 5645 kbps
Codec: DST64

Thanks to ManWhoCan!
Uncompressed SACD ISO size > 2,93 GB
>