Oscar Peterson Trio - The Jazz Soul Of Oscar Peterson (1959/2015) [24bit/192kHz]

Posted By: HDV
Oscar Peterson Trio - The Jazz Soul Of Oscar Peterson (1959/2015) [24bit/192kHz]

Oscar Peterson - The Jazz Soul Of Oscar Peterson (1959/2015)
FLAC (tracks) 24 bit/192 kHz | Time - 34:29 minutes | 1,56 GB
Studio Master, Official Digital Download | Artwork: Front cover

This release of cover songs from Oscar Peterson, recorded and released in 1959, features his trio of the era, Ray Brown on double bass and drummer Ed Thigpen.

Reissue release from the much-recorded Oscar Peterson. Although the pianist is virtually always the lead voice, Brown and Thigpen both make strong (if subtle) contributions to the music. Highlights include "Liza" and "Con Alma".

Tracklist:

01 - Liza (All The Clouds'll Roll Away)
02 - Con Alma
03 - Close Your Eyes
04 - Maidens Of Cadiz
05 - My Heart Stood Still
06 - Woody 'N You

Mastering Engineer: Kevin Reeves @ 4th Floor Studios.

Musicians:
Oscar Peterson - piano
Ray Brown - double bass
Ed Thigpen - drums


Analyzed: Oscar Peterson / The Jazz Soul Of Oscar Peterson
––––––––––––––––––––––––––––––––––––––––

DR Peak RMS Duration Track
––––––––––––––––––––––––––––––––––––––––
DR10 0.00 dB -12.24 dB 4:32 01-Liza (All The Clouds'll Roll Away)
DR11 0.00 dB -15.67 dB 6:59 02-Con Alma
DR10 0.00 dB -12.44 dB 5:46 03-Close Your Eyes
DR14 0.00 dB -19.39 dB 7:43 04-Maidens Of Cadiz
DR10 0.00 dB -13.19 dB 5:43 05-My Heart Stood Still
DR10 0.00 dB -12.98 dB 3:47 06-Woody 'N You
––––––––––––––––––––––––––––––––––––––––

Number of tracks: 6
Official DR value: DR11

Samplerate: 192000 Hz
Channels: 2
Bits per sample: 24
Bitrate: 6289 kbps
Codec: FLAC
================================================================================


Thanks to the Original customer!

More of 'Oscar Peterson' in Hi-Res