Oscar Peterson, Michel Legrand - Trail Of Dreams: A Canadian Suite (2000) [Reissue 2003] MCH PS3 ISO + Hi-Res FLAC

Posted By: HDAtall
Oscar Peterson, Michel Legrand - Trail Of Dreams: A Canadian Suite (2000) [Reissue 2003] MCH PS3 ISO + Hi-Res FLAC

Oscar Peterson Quartet, The Michel Legrand Strings - Trail Of Dreams: A Canadian Suite (2000)
PS3 Rip | SACD ISO | DST64 2.0 & 5.1 > 1-bit/2.8224 MHz | 51:54 minutes | Full Scans included | 3,26 GB
or FLAC 2.0 (converted with foobar2000 to tracks) 24bit/88,2 kHz | 51:25 minutes | Scans included | 1,04 GB
Features Stereo and Multichannel Surround Sound / Telarc # SACD-63500

Trail of Dreams: A Canadian Suite is a 2000 studio album by Oscar Peterson. The album is a suite dedicated to Peterson's native Canada, arranged by Michel Legrand.

Trail of Dreams: A Canadian Suite is hardly a typical Oscar Peterson album. This time, the Canadian pianist doesn't play any standards and doesn't take a bop-oriented approach; in fact, Trail of Dreams isn't a straight-ahead jazz album but rather combines jazz with elements of pop, classical, and symphonic music. Recorded in April 2000, this CD finds Peterson joining forces with Michel Legrand, who conducts a lush 24-piece string orchestra. Legrand is famous for composing gems like "You Must Believe in Spring" and "Once Upon a Summertime," but the French icon doesn't do any composing on this album; his role is strictly that of a conductor/arranger, and all of the writing was done by Peterson himself. The compositions were meant to paint an aural picture of Peterson's native Canada; they were inspired by places that range from Quebec in eastern Canada to British Columbia in the western part of the country. The music is generally likable, and even though Peterson doesn't have a great deal of room to stretch out and improvise, he manages to get in some decent solos here and there. Nonetheless, Trail of Dreams never pretends to be a hardcore bop date, which is why it's pointless to judge the CD by bop standards. This release isn't recommended to bop snobs, although more broad-minded listeners will find it to be an interesting, if imperfect, departure for the veteran pianist.

Tracklist:

01. Open Spaces
02. Morning in Newfoundland
03. The Okanagan Valley
04. Dancetron
05. Ballad to P.E.I.
06. Cookin' on the Trail
07. Banff the Beautiful
08. Lonesome Prairie
09. The French Fiddler
10. Harcourt Nights
11. Manitoba Minuet
12. Anthem to a New Land

Composed by Oscar Peterson. Arranged & Conducted by Michel Legrand.
Recorded on April 12-13, 2000 at Manta Eastern Sound Studios in Toronto, Canada.

Personnel
Oscar Peterson – piano
Ulf Wakenius – guitar
Niels-Henning Ørsted Pedersen – double bass
Martin Drew – drums
+ The Michel Legrand Strings

foobar2000 1.3.17 / Dynamic Range Meter 1.1.1

––––––––––––––––––––––––––––––––––––––––
Analyzed: Oscar Peterson, Michel Legrand, Ulf Wakenius, Niels Henning-Шrsted Pedersen, Martin Drew, The Michel Legrand Strings / Trail of Dreams - A Canadian Suite
––––––––––––––––––––––––––––––––––––––––

DR Peak RMS Duration Track
––––––––––––––––––––––––––––––––––––––––
DR14 -4.49 dB -26.27 dB 7:10 01-Open Spaces
DR12 -6.35 dB -30.44 dB 3:50 02-Morning in Newfoundland
DR13 -6.21 dB -25.40 dB 4:31 03-The Okanagan Valley
DR12 -5.30 dB -25.09 dB 3:59 04-Dancetron
DR12 -8.63 dB -28.00 dB 2:59 05-Ballad to P.E.I.
DR13 -4.97 dB -24.93 dB 4:06 06-Cookin' on the Trail
DR12 -8.55 dB -27.65 dB 5:39 07-Banff the Beautiful
DR12 -11.75 dB -29.95 dB 3:32 08-Lonesome Prairie
DR12 -5.05 dB -24.33 dB 3:03 09-The French Fiddler
DR12 -8.24 dB -28.86 dB 5:09 10-Harcourt Nights
DR13 -4.47 dB -26.75 dB 5:21 11-Manitoba Minuet
DR12 -6.64 dB -25.17 dB 2:34 12-Anthem to a New Land
––––––––––––––––––––––––––––––––––––––––

Number of tracks: 12
Official DR value: DR12

Samplerate: 2822400 Hz / PCM Samplerate: 88200 Hz
Channels: 6
Bits per sample: 1
Bitrate: 16934 kbps
Codec: DST64
================================================================================

––––––––––––––––––––––––––––––––––––––––
Analyzed: Oscar Peterson, Michel Legrand, Ulf Wakenius, Niels Henning-Шrsted Pedersen, Martin Drew, The Michel Legrand Strings / Trail of Dreams - A Canadian Suite
––––––––––––––––––––––––––––––––––––––––

DR Peak RMS Duration Track
––––––––––––––––––––––––––––––––––––––––
DR14 -5.85 dB -23.67 dB 7:09 01-Open Spaces
DR12 -7.94 dB -26.81 dB 3:48 02-Morning in Newfoundland
DR12 -10.01 dB -25.68 dB 4:30 03-The Okanagan Valley
DR14 -4.63 dB -22.32 dB 3:59 04-Dancetron
DR12 -10.21 dB -25.63 dB 2:53 05-Ballad to P.E.I.
DR13 -5.42 dB -22.48 dB 4:03 06-Cookin' on the Trail
DR12 -9.44 dB -26.85 dB 5:35 07-Banff the Beautiful
DR11 -12.18 dB -27.60 dB 3:28 08-Lonesome Prairie
DR12 -5.60 dB -22.63 dB 3:00 09-The French Fiddler
DR12 -10.50 dB -27.27 dB 5:06 10-Harcourt Nights
DR13 -6.16 dB -23.65 dB 5:20 11-Manitoba Minuet
DR11 -7.87 dB -22.27 dB 2:34 12-Anthem to a New Land
––––––––––––––––––––––––––––––––––––––––

Number of tracks: 12
Official DR value: DR12

Samplerate: 2822400 Hz / PCM Samplerate: 88200 Hz
Channels: 2
Bits per sample: 1
Bitrate: 5645 kbps
Codec: DST64


Thanks to SergeyVP!
Uncompressed SACD ISO size > 3,08 GB
>