The Oscar Peterson Trio - Tristeza On Piano (1970/2014) [Official Digital Download 24/88]

Posted By: HDV
The Oscar Peterson Trio - Tristeza On Piano (1970/2014) [Official Digital Download 24/88]

The Oscar Peterson Trio - Tristeza On Piano (1970/2014)
FLAC (tracks) 24-bit/88,2 kHz | Time - 44:42 minutes | 863 MB
Studio Master, Official Digital Download | Artwork: Front cover

This 1970 session from Oscar Peterson and his trio is considered one of the high points of the pianist's career. Accompanied by Sam Jones on double bass and Bobby Durham on drums, Peterson delves into the world of bossa nova on tracks such as Triste by Antônio Carlos Jobim. The majority of the tunes here are standards but there is one Peterson original number entitled Nightingale.

At the beginning of this set Oscar Peterson so overwhelms the normally gentle 'Tristeza' that it almost becomes a parody. Fortunately the remainder of the bossa nova-flavored CD reissue is more tasteful and, even if Peterson is overly hyper in spots, he is able to bring out the beauty of such songs as George Gershwin's 'Porgy,' Antonio Carlos Jobim's 'Trieste' and 'Watch What Happens' in addition to stomping through the straightahead 'You Stepped out of a Dream'.

Tracklist:

01 - Tristeza
02 - Nightingale
03 - Porgy
04 - Triste
05 - You Stepped Out of a Dream
06 - Watch What Happens
07 - Down Here On the Ground
08 - Fly Me to the Moon

Produced & Engineered by Hans Georg Brunner-Schwer.
Recorded at A+R Studio, New York, N.Y. in 1970.
Digitally Remastered.

Musicians:
Oscar Peterson – Piano
Sam Jones – Double bass
Bobby Durham – drums

Analyzed: The Oscar Peterson Trio / Tristeza On Piano
––––––––––––––––––––––––––––––––––––––––

DR Peak RMS Duration Track
––––––––––––––––––––––––––––––––––––––––
DR12 -1.79 dB -15.77 dB 3:12 01-Tristeza
DR13 -0.73 dB -16.98 dB 6:45 02-Nightingale
DR13 -2.88 dB -19.05 dB 6:13 03-Porgy
DR13 -1.54 dB -18.49 dB 5:21 04-Triste
DR13 -1.32 dB -16.47 dB 3:33 05-You Stepped Out of a Dream
DR11 -1.13 dB -15.28 dB 6:11 06-Watch What Happens
DR12 -1.12 dB -16.07 dB 8:49 07-Down Here On the Ground
DR12 -0.90 dB -16.66 dB 4:38 08-Fly Me to the Moon
––––––––––––––––––––––––––––––––––––––––

Number of tracks: 8
Official DR value: DR12

Samplerate: 88200 Hz
Channels: 2
Bits per sample: 24
Bitrate: 2545 kbps
Codec: FLAC
================================================================================


Thanks to the Original customer!