Otto Klemperer, Philharmonia Orchestra - W.A. Mozart: The Last 6 Symphonies (2012) SACD ISO + Hi-Res FLAC

Posted By: HDAtall
Otto Klemperer, Philharmonia Orchestra - W.A. Mozart: The Last 6 Symphonies (2012) SACD ISO + Hi-Res FLAC

Otto Klemperer, Philharmonia Orchestra - Mozart: The Last Six Symphonies (2012)
3x SACD ISO | DSD64 2.0 > 1-bit/2.8224 MHz | 162:17 minutes | Complete Artwork | 4,65 GB
or FLAC (converted with foobar2000 to tracks) 24bit/96 kHz | Complete Artwork | 3,61 GB

In the online discussions about the best recorded versions of the Mozart symphonies there is little reference made to Otto Klemperer, although at one time his EMI recordings of the last several Mozart symphonies were considered the epitome. His various recordings have been available in one form or another ever since his first LPs came out in the late 1950s. These are marvellous performances of the Symphonies No. 38 & 39, deeply considered and played to perfection by the Philarmonia Orchestra. In the last two symphonies power and elegance stand side by side
This reissue is a part of the Signature Collection from EMI Classics featuring the finest catalog recordings released for the first time ever in high resolution format. The expert engineers at Abbey Road Studios who remastered the original EMI recordings on Hybrid Super Audio CDs have breathed new life into these iconic catalog recordings.

Klemperer's unrelieved sobriety and dignity may strike some as joyless, drained of spirit and utterly boring, and others as reflecting unparalleled honesty, integrity and self-effacement. But even his detractors must admit that he manages to lace his Mozart recordings with rhythmic lilt and light textures. He also pioneered a return in modern times to the former routine practice of separating first and second violins to stage left and right, so as to add a spacial dimension to their interplay.

Tracklist

DISC ONE:
01. Symphony No. 35 in D, K. 385 'Haffner': I. Allegro con spirito
02. Symphony No. 35 in D, K. 385 'Haffner': II. Andante
03. Symphony No. 35 in D, K. 385 'Haffner': III. Menuetto & Trio
04. Symphony No. 35 in D, K. 385 'Haffner': IV. Finale (Presto)
05. Symphony No. 36 in C, K. 425 'Linz': I. Adagio - Allegro spiritoso
06. Symphony No. 36 in C, K. 425 'Linz': II. Andante
07. Symphony No. 36 in C, K. 425 'Linz': III. Menuetto & Trio
08. Symphony No. 36 in C, K. 425 'Linz': IV. Finale (Presto)
09. Die Entfuhrung aus dem Serail Overture (with New Philharmonia Orchestra)

DISC TWO:
01. Symphony No. 38 in D, K. 504 'Prague': I. Adagio - Allegro
02. Symphony No. 38 in D, K. 504 'Prague': II. Andante
03. Symphony No. 38 in D, K. 504 'Prague': III. Presto
04. Symphony No. 39 in E flat, K. 543: I. Adagio - Allegro
05. Symphony No. 39 in E flat, K. 543: II. Andante con moto
06. Symphony No. 39 in E flat, K. 543: III. Menuet (Allegretto) & Trio
07. Symphony No. 39 in E flat, K. 543: IV. Allegro

DISC THREE:
01. Symphony No. 40 in G minor, K. 550: I. Allegro molto
02. Symphony No. 40 in G minor, K. 550: II. Andante
03. Symphony No. 40 in G minor, K. 550: III. Menuetto (Allegretto) & Trio
04. Symphony No. 40 in G minor, K. 550: IV. Finale (Allegro assai)
05. Symphony No. 41 in C, K. 551 'Jupiter': I. Allegro vivace
06. Symphony No. 41 in C, K. 551 'Jupiter': II. Andante cantabile
07. Symphony No. 41 in C, K. 551 'Jupiter': III. Menuetto (Allegretto) & Trio
08. Symphony No. 41 in C, K. 551 'Jupiter': IV. Molto Allegro

Symphony No.35 - Recorded on October 22-23, 1960 at No.1 Studio, Abbey Road, London.
Symphony No.36 - Recorded on July 19, 1956 at Kingway Hall, London.
Die Entfuhrung aus dem Serail Overture - Recorded on September 29, 1960 at Kingway Hall, London.
Symphony No.38 - Recorded on March 26-28, 1962 at Kingway Hall, London.
Symphony No.39 - Recorded on March 26-28, 1956 at Kingway Hall, London.
Symphony No.40 - Recorded on March 8 & 28, 1962 at Kingway Hall, London.
Symphony No.41 - Recorded on March 6 & 7, 1962 at Kingway Hall, London.

Features 2011 Digital Remaster.

foobar2000 1.4.8 / Dynamic Range Meter 1.1.1

––––––––––––––––––––––––––––––––––––––––
Analyzed: OTTO KLEMPERER / MOZART: THE LATE SYMPHONIES
––––––––––––––––––––––––––––––––––––––––

DR Peak RMS Duration Track
––––––––––––––––––––––––––––––––––––––––
DR13 -7.07 dB -25.07 dB 5:53 01-Symphony No. 35 in D, K. 385 'Haffner' (2011 Digital Remaster): I. Allegro con spirito
DR13 -11.49 dB -30.43 dB 4:59 02-Symphony No. 35 in D, K. 385 'Haffner' (2011 Digital Remaster): II. Andante
DR14 -7.41 dB -27.73 dB 3:17 03-Symphony No. 35 in D, K. 385 'Haffner' (2011 Digital Remaster): III. Menuetto & Trio
DR12 -9.54 dB -26.19 dB 4:11 04-Symphony No. 35 in D, K. 385 'Haffner' (2011 Digital Remaster): IV. Finale (Presto)
DR12 -5.67 dB -21.49 dB 9:54 05-Symphony No. 36 in C, K. 425 'Linz' (2011 Digital Remaster): I. Adagio - Allegro spiritoso
DR13 -9.11 dB -27.36 dB 6:36 06-Symphony No. 36 in C, K. 425 'Linz' (2011 Digital Remaster): II. Andante
DR14 -6.65 dB -25.16 dB 3:10 07-Symphony No. 36 in C, K. 425 'Linz' (2011 Digital Remaster): III. Menuetto & Trio
DR13 -5.81 dB -22.88 dB 7:14 08-Symphony No. 36 in C, K. 425 'Linz' (2011 Digital Remaster): IV. Finale (Presto)
DR11 -9.81 dB -24.97 dB 5:48 09-Die Entfuhrung aus dem Serail Overture (2011 Digital Remaster)
––––––––––––––––––––––––––––––––––––––––

Number of tracks: 9
Official DR value: DR13

Samplerate: 2822400 Hz / PCM Samplerate: 176400 Hz
Channels: 2
Bits per sample: 1
Bitrate: 5645 kbps
Codec: DSD64
================================================================================

––––––––––––––––––––––––––––––––––––––––
Analyzed: OTTO KLEMPERER / MOZART: THE LATE SYMPHONIES
––––––––––––––––––––––––––––––––––––––––

DR Peak RMS Duration Track
––––––––––––––––––––––––––––––––––––––––
DR13 -5.56 dB -22.99 dB 10:56 01-Symphony No. 38 in D, K. 504 'Prague' (2011 Digital Remaster): I. Adagio - Allegro
DR14 -11.37 dB -29.62 dB 9:00 02-Symphony No. 38 in D, K. 504 'Prague' (2011 Digital Remaster): II. Andante
DR13 -6.95 dB -24.86 dB 5:59 03-Symphony No. 38 in D, K. 504 'Prague' (2011 Digital Remaster): III. Presto
DR13 -5.62 dB -22.70 dB 8:19 04-Symphony No. 39 in E flat, K. 543 (2011 Digital Remaster): I. Adagio - Allegro
DR13 -9.75 dB -28.34 dB 9:43 05-Symphony No. 39 in E flat, K. 543 (2011 Digital Remaster): II. Andante con moto
DR13 -8.65 dB -25.84 dB 4:16 06-Symphony No. 39 in E flat, K. 543 (2011 Digital Remaster): III. Menuet (Allegretto) & Trio
DR12 -6.13 dB -22.81 dB 6:09 07-Symphony No. 39 in E flat, K. 543 (2011 Digital Remaster): IV. Allegro
––––––––––––––––––––––––––––––––––––––––

Number of tracks: 7
Official DR value: DR13

Samplerate: 2822400 Hz / PCM Samplerate: 176400 Hz
Channels: 2
Bits per sample: 1
Bitrate: 5645 kbps
Codec: DSD64
================================================================================

––––––––––––––––––––––––––––––––––––––––
Analyzed: OTTO KLEMPERER / MOZART: THE LATE SYMPHONIES
––––––––––––––––––––––––––––––––––––––––

DR Peak RMS Duration Track
––––––––––––––––––––––––––––––––––––––––
DR13 -7.06 dB -24.33 dB 8:42 01-Symphony No. 40 in G minor, K. 550 (2011 Digital Remaster): I. Allegro molto
DR13 -7.01 dB -26.68 dB 8:58 02-Symphony No. 40 in G minor, K. 550 (2011 Digital Remaster): II. Andante
DR12 -7.79 dB -23.87 dB 4:14 03-Symphony No. 40 in G minor, K. 550 (2011 Digital Remaster): III. Menuetto (Allegretto) & Trio
DR13 -7.63 dB -23.84 dB 5:04 04-Symphony No. 40 in G minor, K. 550 (2011 Digital Remaster): IV. Finale (Allegro assai)
DR13 -6.44 dB -23.50 dB 9:18 05-Symphony No. 41 in C, K. 551 'Jupiter' (2011 Digital Remaster): I. Allegro vivace
DR14 -7.71 dB -28.12 dB 9:07 06-Symphony No. 41 in C, K. 551 'Jupiter' (2011 Digital Remaster): II. Andante cantabile
DR12 -5.99 dB -23.47 dB 4:46 07-Symphony No. 41 in C, K. 551 'Jupiter' (2011 Digital Remaster): III. Menuetto (Allegretto) & Trio
DR12 -5.57 dB -20.29 dB 6:46 08-Symphony No. 41 in C, K. 551 'Jupiter' (2011 Digital Remaster): IV. Molto Allegro
––––––––––––––––––––––––––––––––––––––––

Number of tracks: 8
Official DR value: DR13

Samplerate: 2822400 Hz / PCM Samplerate: 176400 Hz
Channels: 2
Bits per sample: 1
Bitrate: 5645 kbps
Codec: DSD64


Thanks to ManWhoCan!
Uncompressed SACD ISO size > 2,05 + 2,18 + 2,28 GB

OTTO KLEMPERER on SACDs
>