Paquito D'Rivera - Portraits Of Cuba (1996) [Reissue 2005] MCH SACD ISO + DSD64 + Hi-Res FLAC

Posted By: HDAtall
Paquito D'Rivera - Portraits Of Cuba (1996) [Reissue 2005] MCH SACD ISO + DSD64 + Hi-Res FLAC

Paquito D'Rivera - Portraits Of Cuba (1996) [Reissue 2005]
SACD Rip | SACD ISO | DST64 2.0 & 5.0 > 1-bit/2.8224 MHz | 60:35 minutes | Front/Rear + PDF book | 2,82 GB
or DSD64 2.0 Stereo (from SACD-ISO to Tracks.dsf) > 1-bit/2.8224 MHz | Front/Rear Covers + PDF | 1,48 GB
or FLAC 2.0 (carefully converted & encoded to tracks) 24bit/96 kHz | Front/Rear + PDF booklet | 984 MB
Features Stereo and Quardrophonic Surround Sound | Label: Chesky Records # SACD 298

This absolutely classic jazz recording is entitled Portraits of Cuba and is a milestone project of Paquito D'Rivera. Arranged by Carlos Franzetti, the large band ensemble provides an orchestral ambiance akin to the legendary Gil Evan sound with Miles Davis, in the classic "Sketches of Spain." This recording couldn't come at a better time, as it presents an artistic commentary on a national and social transition as it unfolds in a new and evolving Cuba. It is truly a work that will be applauded worldwide as the quality of the writing and performance is at a level few artists are capable of achieving today. Paquito D'Rivera provides some of the most inspired improvisation in his career to date and the material chosen for this recording are familiar classics in the popular Latin music tradition. Best Latin Jazz Album of the 39th Annual Grammy Awards.

Because Paquito D'Rivera is such a compelling improviser, one greets a heavily arranged and orchestrated session like Portraits of Cuba with some apprehension. But as it turns out, such apprehension is unwarranted, for the Cuban saxman/clarinetist still has enough room to solo and say what needs to be said. With this 1996 session, which was arranged and conducted by Carlos Franzetti and finds D'Rivera backed by combinations of up to 14 musicians, D'Rivera envisioned an Afro-Cuban equivalent of Miles Davis' Sketches of Spain – and, to be sure, there are some parallels. Franzetti's classical-influenced arrangements recall Gil Evans' work with Davis, and D'Rivera paints an orchestral jazz picture of Cuba much as Davis painted an orchestral jazz picture of Spain. The key phrase here is "jazz picture" – D'Rivera approaches famous Cuban songs like Ignacio Pineiro's "Echale Salsita" and Ernesto Lecuona's "Como Arrullo de Palmas" from an instrumental jazz perspective; this is jazz with both Afro-Cuban and classical elements, but it's jazz first and foremost. Recorded in New York around the time of the infamous Blizzard of 1996 – which dumped up to three feet of snow on parts of the Northeastern U.S. – Portraits of Cuba is among D'Rivera's most essential recordings.

Tracklist:

01. La Bella Cubana
02. The Peanut Vendor
03. Tu
04. Tu Mi Delirio
05. No Te Importe Saber
06. Drume Negrita
07. Portraits Of Cuba
08. Excerpt from "Aires Tropicales"
09. Mariana
10. Como Arrulo De Palmas
11. Echale Salsita
12. Song To My Son
13. Theme from "I Love Lucy"

Arranged And Conducted By Carlos Franzetti.
Produced by David Chesky. Engineered by Bob Katz.
Recorded on February 6-7, 1996 at St. Peter's Church, Chelsea, NYC.
Edited by Nicholas Prout. Mastered by Bob Katz.

foobar2000 1.6.5 / Dynamic Range Meter 1.1.1

––––––––––––––––––––––––––––––––––––––––
Analyzed: Paquito D'Rivera / Portraits Of Cuba
––––––––––––––––––––––––––––––––––––––––

DR Peak RMS Duration Track
––––––––––––––––––––––––––––––––––––––––
DR11 -7.44 dB -30.60 dB 5:14 01-La Bella Cubana
DR12 -6.83 dB -29.93 dB 4:38 02-The Peanut Vendor
DR12 -6.08 dB -28.69 dB 5:35 03-Tu
DR12 -6.24 dB -29.95 dB 6:31 04-Tu Mi Delirio
DR10 -12.75 dB -33.57 dB 5:42 05-No Te Importe Saber
DR13 -7.87 dB -34.58 dB 4:18 06-Drume Negrita
DR12 -6.42 dB -28.75 dB 5:04 07-Portraits Of Cuba
DR9 -20.89 dB -39.26 dB 0:48 08-Excerpt from 'Aires Tropicales'
DR10 -10.80 dB -31.69 dB 5:30 09-Mariana
DR10 -15.84 dB -35.85 dB 3:22 10-Como Arrulo De Palmas
DR12 -6.12 dB -29.73 dB 5:06 11-Echale Salsita
DR12 -7.79 dB -30.27 dB 5:22 12-Song To My Son
DR11 -7.83 dB -29.73 dB 3:25 13-Theme from 'I Love Lucy'
––––––––––––––––––––––––––––––––––––––––

Number of tracks: 13
Official DR value: DR11

Samplerate: 2822400 Hz / PCM Samplerate: 176400 Hz
Channels: 5
Bits per sample: 1
Bitrate: 14112 kbps
Codec: DST64
================================================================================

––––––––––––––––––––––––––––––––––––––––
Analyzed: Paquito D'Rivera / Portraits Of Cuba
––––––––––––––––––––––––––––––––––––––––

DR Peak RMS Duration Track
––––––––––––––––––––––––––––––––––––––––
DR15 -7.44 dB -27.42 dB 5:14 01-La Bella Cubana
DR16 -6.83 dB -26.75 dB 4:38 02-The Peanut Vendor
DR15 -6.08 dB -25.53 dB 5:35 03-Tu
DR16 -6.24 dB -26.78 dB 6:31 04-Tu Mi Delirio
DR12 -12.75 dB -30.53 dB 5:42 05-No Te Importe Saber
DR18 -7.87 dB -31.58 dB 4:18 06-Drume Negrita
DR16 -6.42 dB -25.73 dB 5:04 07-Portraits Of Cuba
DR11 -20.89 dB -36.73 dB 0:48 08-Excerpt from 'Aires Tropicales'
DR13 -10.80 dB -28.56 dB 5:30 09-Mariana
DR14 -15.84 dB -33.13 dB 3:22 10-Como Arrulo De Palmas
DR15 -6.12 dB -26.67 dB 5:06 11-Echale Salsita
DR15 -7.79 dB -27.15 dB 5:22 12-Song To My Son
DR14 -7.83 dB -26.68 dB 3:25 13-Theme from 'I Love Lucy'
––––––––––––––––––––––––––––––––––––––––

Number of tracks: 13
Official DR value: DR15

Samplerate: 2822400 Hz / PCM Samplerate: 176400 Hz
Channels: 2
Bits per sample: 1
Bitrate: 5645 kbps
Codec: DST64


Thanks to jazzyman!
Uncompressed SACD ISO size > 2,69 GB
>