Pat Martino - East (1968) [MFSL 2006] PS3 ISO + Hi-Res FLAC

Posted By: HDAtall
Pat Martino - East (1968) [MFSL 2006] PS3 ISO + Hi-Res FLAC

Pat Martino - East! (1968) [MFSL 2006]
PS3 Rip | SACD ISO | DSD64 2.0 > 1-bit/2.8224 MHz | 38:01 minutes | Scans included | 1,25 GB
or FLAC(converted with foobar2000 to tracks) 24bit/96 kHz | Full Scans included | 935 MB
Mobile Fidelity Sound Lab # UDSACD 2018

Pat Martino is a jazz guitarist and composer within the post-bop, fusion, mainstream jazz and soul jazz idioms. East! is his third album, recorded in 1968 and released on the Prestige label.

Despite the title and the cover of this reissue (which makes it appear that the performances are greatly influenced by music of the Far East), the style played by guitarist Pat Martino's quartet is very much in the hard bop tradition. Martino was already developing his own sound and is in excellent form with pianist Eddie Green, drummer Lenny McBrowne, and either Ben Tucker or Tyrone Brown on bass during two group originals, Benny Golson's "Park Avenue Petite," John Coltrane's "Lazy Bird," and the standard "Close Your Eyes." It's a good example of Pat Martino's playing in his early period.

Tracklist:

01. East
02. Trick
03. Close Your Eyes
04. Park Avenue Petite
05. Lazy Bird

Personnel
Pat Martino - guitar
Eddie Green - piano
Ben Tucker - bass, tambourine
Tyrone Brown - bass on "1"
Lenny McBrowne - drums

Recorded on January 8, 1968 in New York City.
Mastered by Shawn R. Britton at Mobile Fidelity Sound Lab, Sebastopol, CA.

foobar2000 1.4.3 / Dynamic Range Meter 1.1.1

––––––––––––––––––––––––––––––––––––––––
Analyzed: Pat Martino / East!
––––––––––––––––––––––––––––––––––––––––

DR Peak RMS Duration Track
––––––––––––––––––––––––––––––––––––––––
DR9 -4.15 dB -16.10 dB 12:44 01-East
DR10 -4.25 dB -15.64 dB 6:55 02-Trick
DR9 -4.33 dB -15.36 dB 6:07 03-Close Your Eyes
DR11 -4.47 dB -19.01 dB 5:47 04-Park Avenue Petite
DR9 -4.12 dB -14.83 dB 6:28 05-Lazy Bird
––––––––––––––––––––––––––––––––––––––––

Number of tracks: 5
Official DR value: DR9

Samplerate: 2822400 Hz / PCM Samplerate: 176400 Hz
Channels: 2
Bits per sample: 1
Bitrate: 5645 kbps
Codec: DSD64


Uncompressed SACD ISO size > 1,53 GB
Thanks to PS³SACD!
>